+ ตอบกลับกระทู้
สรุปผลการค้นหา 1 ถึง 4 จากทั้งหมด 4
  1. #1
    Administrators รูปส่วนตัว Duckload.us
    สมัครเมื่อ
    Dec 2010
    โพสต์
    118,529
    Thanks
    7
    Thanked 124,623 Times in 55,790 Posts

    Question [ญี่ปุ่น]-ใหม่ [* 1080p ไฟล์เล็กคุณภาพสูง! *] Hello World (2019) : เธอ.ฉัน.โลก.เรา [เสียง: พากย์ไทย 5.1 + เสียงญี่ปุ่น TrueHD 7.1 Atmos] • [บรรยาย: อังกฤษ + ญี่ปุ่น] [เสียงไทย From DVD MASTER]



    ••• 1080p.BDRip.TrueHD_7.1.Atmos.H264.Hi10p •••
    เสียง : ไทย 5.1 + เสียงญี่ปุ่น TrueHD_7.1.Atmos บรรยาย : ญี่ปุ่น + อังกฤษ

    Hello World ฉันจะปกป้องเธอเอง... แม้เราไม่ได้อยู่บนโลกใบเดียวกัน Hello World อนิเมะแนวไซไฟ-แฟนตาซี จากฝีมือของ ผู้กำกับ Sword Art Online เรื่องราวของ ชายหนุ่มจากโลกอนาคตที่ย้อนเวลา กลับมาช่วยชีวิตรักแรกของเขา และ effect จากการข้ามเวลาส่งให้โลกต้องเสี่ยง กับปรากฏการณ์บางอย่างที่จะทำให้โลกล่มสลาย *** เวปทางการของหนังเปิดเผยว่า ทาคุมิ คิตะมุระ และ มินามิ ฮามาเบะ คู่ขวัญจาก ตับอ่อนเธอนั้นขอฉันเถอะนะ จะมาให้เสียงพากย์เป็นพระเอกนางเอก ใน Hello World อีกด้วย!

    Format : Matroska
    Format version : Version 4
    File size : 4.34 GiB
    Duration : 1 h 37 min
    Overall bit rate : 6 357 kb/s
    Movie name : Hello.World.2019.1080p.BDRip.TrueHD_7.1.Atmos.H264 [email protected]~

    Video
    ID : 1
    Format : HEVC
    Format/Info : High Efficiency Video Coding
    Format profile : Main [email protected]@Main
    Codec ID : V_MPEGH/ISO/HEVC
    Duration : 1 h 37 min
    Bit rate : 1 400 kb/s
    Width : 1 920 pixels
    Height : 1 080 pixels
    Display aspect ratio : 16:9
    Frame rate mode : Constant
    Frame rate : 23.976 (24000/1001) FPS
    Color space : YUV
    Chroma subsampling : 4:2:0
    Bit depth : 10 bits
    Bits/(Pixel*Frame) : 0.028
    Stream size : 979 MiB (22%)
    Title : Hello.World.2019.1080p.BDRip.TrueHD_7.1.Atmos.H264 [email protected]~
    Writing library : Lavc58.77.101 libx265
    Language : Japanese
    Default : Yes
    Forced : No
    Color range : Limited
    Color primaries : BT.709
    Transfer characteristics : BT.709
    Matrix coefficients : BT.709

    Audio #1
    ID : 2
    Format : AC-3
    Format/Info : Audio Coding 3
    Commercial name : Dolby Digital
    Codec ID : A_AC3
    Duration : 1 h 37 min
    Bit rate mode : Constant
    Bit rate : 448 kb/s
    Channel(s) : 6 channels
    Channel layout : L R C LFE Ls Rs
    Sampling rate : 48.0 kHz
    Frame rate : 31.250 FPS (1536 SPF)
    Compression mode : Lossy
    Stream size : 313 MiB (7%)
    Title : Thai 5.1 From DVD Master @ 48 kb/s
    Language : Thai
    Service kind : Complete Main
    Default : Yes
    Forced : Yes

    Audio #2
    ID : 3
    Format : MLP FBA 16-ch
    Format/Info : Meridian Lossless Packing FBA with 16-channel presentation
    Commercial name : Dolby TrueHD with Dolby Atmos
    Codec ID : A_TRUEHD
    Duration : 1 h 37 min
    Bit rate mode : Variable
    Bit rate : 4 428 kb/s
    Maximum bit rate : 9 036 kb/s
    Channel(s) : 8 channels
    Channel layout : L R C LFE Ls Rs Lb Rb
    Sampling rate : 48.0 kHz
    Frame rate : 1 200.000 FPS (40 SPF)
    Compression mode : Lossless
    Stream size : 3.02 GiB (70%)
    Title : Dolby TrueHD Atmos 7.1 (Untouched)
    Language : Japanese
    Default : No
    Forced : No
    Number of dynamic objects : 15
    Bed channel count : 1 channel
    Bed channel configuration : LFE

    Text #1
    ID : 4
    Format : PGS
    Muxing mode : zlib
    Codec ID : S_HDMV/PGS
    Codec ID/Info : Picture based subtitle format used on BDs/HD-DVDs
    Duration : 1 h 36 min
    Bit rate : 27.5 kb/s
    Count of elements : 2401
    Stream size : 19.1 MiB (0%)
    Title : JAPANESE-PGS Sub (Untouched)
    Language : Japanese
    Default : Yes
    Forced : No

    Text #2
    ID : 5
    Format : ASS
    Codec ID : S_TEXT/ASS
    Codec ID/Info : Advanced Sub Station Alpha
    Duration : 1 h 36 min
    Bit rate : 72 b/s
    Count of elements : 1066
    Compression mode : Lossless
    Stream size : 51.2 KiB (0%)
    Title : Eng Sub (Dialogues+Songs) Marshall ~ AnimeKayo, Lonely Hikikomori
    Language : English
    Default : No
    Forced : No

    Text #3
    ID : 6
    Format : ASS
    Codec ID : S_TEXT/ASS
    Codec ID/Info : Advanced Sub Station Alpha
    Duration : 1 h 36 min
    Bit rate : 72 b/s
    Count of elements : 1066
    Compression mode : Lossless
    Stream size : 51.3 KiB (0%)
    Title : ENG Sub (Lonely Hikikomori)
    Language : English
    Default : No
    Forced : No

    Menu
    00:00:00.000 : :Chapitre 01
    00:02:15.510 : :Chapitre 02
    00:05:52.393 : :Chapitre 03
    00:10:32.840 : :Chapitre 04
    00:15:15.372 : :Chapitre 05
    00:22:31.933 : :Chapitre 06
    00:26:54.029 : :Chapitre 07
    00:29:16.755 : :Chapitre 08
    00:34:29.275 : :Chapitre 09
    00:42:15.866 : :Chapitre 10
    00:44:26.955 : :Chapitre 11
    00:52:14.381 : :Chapitre 12
    00:56:46.611 : :Chapitre 13
    00:59:27.689 : :Chapitre 14
    01:03:15.541 : :Chapitre 15
    01:07:17.408 : :Chapitre 16
    01:11:39.586 : :Chapitre 17
    01:16:32.963 : :Chapitre 18
    01:19:32.851 : :Chapitre 19
    01:27:59.148 : :Chapitre 20
    01:31:07.462 : :Chapitre 21
    01:32:20.952 : :Chapitre 22















    Download: cornfile
    http://cornfile.com/nzuler92vcnw
    Download: mekafile
    meka รออัพ..*ระบบล่ม*

  2. The Following 2 Users Say Thank You to Duckload.us For This Useful Post:

    apichartdear (08-03-2020), Wesker_TOT (08-04-2020)

  3. #2
    Junior Member รูปส่วนตัว load1part
    สมัครเมื่อ
    May 2014
    โพสต์
    26
    Thanks
    13
    Thanked 0 Times in 0 Posts
    cornfile กดโหลดแล้ว เว็ปล่ม ตลอดเลยครับ

  4. #3
    Senior Member
    สมัครเมื่อ
    Jul 2013
    โพสต์
    1,153
    Thanks
    0
    Thanked 0 Times in 0 Posts
    ขอบคุณครับผม เดี๋ยว ต้องจัด ตัว Full อีกสักรอบ

  5. #4
    Senior Member
    สมัครเมื่อ
    Dec 2013
    โพสต์
    2,374
    Thanks
    4,299
    Thanked 0 Times in 0 Posts
    ขอบคุณนะครับ...

+ ตอบกลับกระทู้

ข้อมูลกระทู้

Users Browsing this Thread

ในขณะนี้มี 1 ท่านดูกระทู้อยู่. (0 สมาชิกและ 1 ผู้เยี่ยมชม)

     

กฎการโพสต์ข้อความ

  • ท่าน ไม่สามารถ ตั้งกระทู้ใหม่ได้
  • ท่าน ไม่สามารถ ตอบกระทู้ได้
  • ท่าน ไม่สามารถ แนบไฟล์ได้
  • ท่าน ไม่สามารถ แก้ไขข้อความโพสต์ได้
  • BB code สถานะ เปิด
  • Smilies สถานะ เปิด
  • [IMG] สถานะ เปิด
  • HTML สถานะ ปิด