+ ตอบกลับกระทู้
สรุปผลการค้นหา 1 ถึง 3 จากทั้งหมด 3
  1. #1
    Administrators รูปส่วนตัว Duckload.us
    สมัครเมื่อ
    Dec 2010
    โพสต์
    127,911
    Thanks
    7
    Thanked 132,094 Times in 58,485 Posts

    Angry [ฝรั่ง]-[x-TaR] The Hobbit I-III - HDR [พากย์ไทย + อังกฤษ] • [บรรยายไทย + อังกฤษ]-4K Blu-ray.AC-3.2160p. [Master]-[พากย์ไทย บรรยายไทย]



    Code:
    General
    Unique ID                      : 71726284210638786489131628082923713705 (0x35F5FAD7D944BF9DE7BD4F94186634A9)
    Format                         : Matroska
    Format version                 : Version 4 / Version 2
    File size                      : 25.2 GiB
    Duration                       : 2 h 44 min
    Overall bit rate               : 21.9 Mb/s
    Movie name                     : The Hobbit: The Battle of the Five Armies (2014) HDR
    Encoded date                   : UTC 2020-07-24 13:57:17
    Writing application            : mkvmerge v47.0.0 ('Black Flag') 64-bit
    Writing library                : libebml v1.3.10 + libmatroska v1.5.2
    Cover                          : Yes
    Attachments                    : cover.jpg
    
    Video
    ID                             : 1
    Format                         : HEVC
    Format/Info                    : High Efficiency Video Coding
    Format profile                 : Main [email protected]@High
    Codec ID                       : V_MPEGH/ISO/HEVC
    Duration                       : 2 h 44 min
    Bit rate                       : 15.8 Mb/s
    Width                          : 3 840 pixels
    Height                         : 1 600 pixels
    Display aspect ratio           : 2.40:1
    Frame rate mode                : Constant
    Frame rate                     : 23.976 (24000/1001) FPS
    Color space                    : YUV
    Chroma subsampling             : 4:2:0
    Bit depth                      : 10 bits
    Bits/(Pixel*Frame)             : 0.107
    Stream size                    : 18.1 GiB (72%)
    Title                          : The Hobbit: The Battle of the Five Armies (2014)
    Default                        : Yes
    Forced                         : No
    Color range                    : Limited
    Color primaries                : BT.2020
    Transfer characteristics       : SMPTE ST 2084
    Matrix coefficients            : BT.2020 non-constant
    Mastering display color primar : R: x=0.680000 y=0.320000, G: x=0.265000 y=0.690000, B: x=0.150000 y=0.060000, White point: x=0.312700 y=0.329000
    Mastering display luminance    : min: 0.0050 cd/m2, max: 1000.0000 cd/m2
    
    Audio #1
    ID                             : 2
    Format                         : AC-3
    Format/Info                    : Audio Coding 3
    Format settings, Endianness    : Big
    Codec ID                       : A_AC3
    Duration                       : 2 h 44 min
    Bit rate mode                  : Constant
    Bit rate                       : 448 kb/s
    Channel(s)                     : 6 channels
    Channel positions              : Front: L C R, Side: L R, LFE
    Sampling rate                  : 48.0 kHz
    Frame rate                     : 31.250 FPS (1536 SPF)
    Bit depth                      : 16 bits
    Compression mode               : Lossy
    Stream size                    : 526 MiB (2%)
    Title                          : Thai AC-3 (5.1)
    Language                       : Thai
    Service kind                   : Complete Main
    Default                        : Yes
    Forced                         : Yes
    
    Audio #2
    ID                             : 3
    Format                         : DTS
    Format/Info                    : Digital Theater Systems
    Format profile                 : MA / Core
    Mode                           : 16
    Format settings, Endianness    : Big
    Codec ID                       : A_DTS
    Duration                       : 2 h 44 min
    Bit rate mode                  : Variable / Constant
    Bit rate                       : 4 764 kb/s / 1 509 kb/s
    Channel(s)                     : 8 channels / 6 channels
    Channel positions              : Front: L C R, Side: L R, Back: L R, LFE / Front: L C R, Side: L R, LFE
    Sampling rate                  : 48.0 kHz
    Frame rate                     : 93.750 FPS (512 SPF)
    Bit depth                      : 24 bits
    Compression mode               : Lossless / Lossy
    Stream size                    : 5.46 GiB (22%)
    Title                          : English DTS-HD (7.1)
    Language                       : English
    Default                        : No
    Forced                         : No
    
    Audio #3
    ID                             : 4
    Format                         : AC-3
    Format/Info                    : Audio Coding 3
    Format settings, Endianness    : Big
    Codec ID                       : A_AC3
    Duration                       : 2 h 44 min
    Bit rate mode                  : Constant
    Bit rate                       : 448 kb/s
    Channel(s)                     : 6 channels
    Channel positions              : Front: L C R, Side: L R, LFE
    Sampling rate                  : 48.0 kHz
    Frame rate                     : 31.250 FPS (1536 SPF)
    Bit depth                      : 16 bits
    Compression mode               : Lossy
    Stream size                    : 526 MiB (2%)
    Title                          : English AC-3 (5.1)
    Language                       : English
    Service kind                   : Complete Main
    Default                        : No
    Forced                         : No
    
    Audio #4
    ID                             : 5
    Format                         : AC-3
    Format/Info                    : Audio Coding 3
    Format settings, Endianness    : Big
    Codec ID                       : A_AC3
    Duration                       : 2 h 44 min
    Bit rate mode                  : Constant
    Bit rate                       : 448 kb/s
    Channel(s)                     : 6 channels
    Channel positions              : Front: L C R, Side: L R, LFE
    Sampling rate                  : 48.0 kHz
    Frame rate                     : 31.250 FPS (1536 SPF)
    Bit depth                      : 16 bits
    Compression mode               : Lossy
    Delay relative to video        : 78 ms
    Stream size                    : 526 MiB (2%)
    Title                          : French AC-3 (5.1)
    Language                       : French
    Service kind                   : Complete Main
    Default                        : No
    Forced                         : No
    
    Text #1
    ID                             : 6
    Format                         : PGS
    Muxing mode                    : zlib
    Codec ID                       : S_HDMV/PGS
    Codec ID/Info                  : Picture based subtitle format used on BDs/HD-DVDs
    Duration                       : 2 h 43 min
    Bit rate                       : 15.0 kb/s
    Count of elements              : 3090
    Stream size                    : 17.5 MiB (0%)
    Title                          : Thai PGS
    Language                       : Thai
    Default                        : No
    Forced                         : No
    
    Text #2
    ID                             : 7
    Format                         : UTF-8
    Codec ID                       : S_TEXT/UTF8
    Codec ID/Info                  : UTF-8 Plain Text
    Duration                       : 2 h 29 min
    Bit rate                       : 29 b/s
    Count of elements              : 1462
    Stream size                    : 32.8 KiB (0%)
    Title                          : English SRT
    Language                       : English
    Default                        : No
    Forced                         : No
    
    Text #3
    ID                             : 8
    Format                         : UTF-8
    Codec ID                       : S_TEXT/UTF8
    Codec ID/Info                  : UTF-8 Plain Text
    Duration                       : 2 h 42 min
    Bit rate                       : 32 b/s
    Count of elements              : 1713
    Stream size                    : 38.2 KiB (0%)
    Title                          : English (SDH) SRT
    Language                       : English
    Default                        : No
    Forced                         : No
    
    Text #4
    ID                             : 9
    Format                         : UTF-8
    Codec ID                       : S_TEXT/UTF8
    Codec ID/Info                  : UTF-8 Plain Text
    Duration                       : 2 h 43 min
    Bit rate                       : 27 b/s
    Count of elements              : 1437
    Stream size                    : 32.5 KiB (0%)
    Title                          : French SRT
    Language                       : French
    Default                        : No
    Forced                         : No
    
    Menu
    00:00:00.000                   : :Chapter 1
    00:05:12.186                   : :Chapter 2
    00:12:47.183                   : :Chapter 3
    00:13:19.090                   : :Chapter 4
    00:18:57.344                   : :Chapter 5
    00:23:42.129                   : :Chapter 6
    00:24:56.244                   : :Chapter 7
    00:26:04.563                   : :Chapter 8
    00:27:33.109                   : :Chapter 9
    00:35:45.476                   : :Chapter 10
    00:36:41.199                   : :Chapter 11
    00:40:42.023                   : :Chapter 12
    00:42:01.227                   : :Chapter 13
    00:43:11.881                   : :Chapter 14
    00:46:16.106                   : :Chapter 15
    00:51:27.709                   : :Chapter 16
    00:54:57.878                   : :Chapter 17
    00:56:14.704                   : :Chapter 18
    00:58:31.382                   : :Chapter 19
    01:00:26.789                   : :Chapter 20
    01:02:43.343                   : :Chapter 21
    01:06:10.132                   : :Chapter 22
    01:12:23.213                   : :Chapter 23
    01:17:22.638                   : :Chapter 24
    01:20:36.415                   : :Chapter 25
    01:24:57.300                   : :Chapter 26
    01:28:41.774                   : :Chapter 27
    01:30:52.363                   : :Chapter 28
    01:33:02.034                   : :Chapter 29
    01:35:12.915                   : :Chapter 30
    01:38:32.615                   : :Chapter 31
    01:39:42.977                   : :Chapter 32
    01:41:00.679                   : :Chapter 33
    01:45:03.463                   : :Chapter 34
    01:47:13.468                   : :Chapter 35
    01:49:05.163                   : :Chapter 36
    01:50:02.888                   : :Chapter 37
    01:52:59.689                   : :Chapter 38
    01:53:51.408                   : :Chapter 39
    01:57:15.111                   : :Chapter 40
    02:05:38.572                   : :Chapter 41
    02:12:06.793                   : :Chapter 42
    02:15:26.326                   : :Chapter 43
    02:18:32.596                   : :Chapter 44
    02:20:07.482                   : :Chapter 45
    02:22:26.996                   : :Chapter 46
    02:26:11.637                   : :Chapter 47
    02:30:54.545                   : :Chapter 48


    The Hobbit - An Unexpected Journey (2012).mkv - 29.1 GB
    The Hobbit - The Desolation of Smaug (2013).mkv - 28.7 GB
    The Hobbit- The Battle of the Five Armies (2014).mkv - 25.2 GB

  2. #2
    Senior Member
    สมัครเมื่อ
    Jul 2012
    โพสต์
    7,536
    Thanks
    0
    Thanked 0 Times in 0 Posts
    ขอบคุณมากจ้า

  3. #3
    Junior Member
    สมัครเมื่อ
    Dec 2013
    โพสต์
    13
    Thanks
    1
    Thanked 0 Times in 0 Posts
    The Hobbit- The Battle of the Five Armies (2014) โหลดไม่ได้ครับ

+ ตอบกลับกระทู้

ข้อมูลกระทู้

Users Browsing this Thread

ในขณะนี้มี 1 ท่านดูกระทู้อยู่. (0 สมาชิกและ 1 ผู้เยี่ยมชม)

     

กฎการโพสต์ข้อความ

  • ท่าน ไม่สามารถ ตั้งกระทู้ใหม่ได้
  • ท่าน ไม่สามารถ ตอบกระทู้ได้
  • ท่าน ไม่สามารถ แนบไฟล์ได้
  • ท่าน ไม่สามารถ แก้ไขข้อความโพสต์ได้
  • BB code สถานะ เปิด
  • Smilies สถานะ เปิด
  • [IMG] สถานะ เปิด
  • HTML สถานะ ปิด