+ ตอบกลับกระทู้
สรุปผลการค้นหา 1 ถึง 3 จากทั้งหมด 3
  1. #1
    Administrators รูปส่วนตัว Duckload.us
    สมัครเมื่อ
    Dec 2010
    โพสต์
    118,373
    Thanks
    7
    Thanked 124,443 Times in 55,689 Posts

    Question [ฝรั่ง]-[พากย์ไทยมาสเตอร์มาใหม่] Whered You Go, Bernadette (2019) -Blu-ray.H.264.1080p. [Modified]-[พากย์ไทย-พากย์อังกฤษ-บรรยายอังกฤษ]



    Where'd You Go, Bernadette หนังใหม่ของ Richard Linklater ผู้กำกับจากหนังพูดพร่ำไตรภาค Before ..., Boyhood และ Everybody Wants Some!! ที่จะได้มือดีอย่าง Cate Blanchett มารับบทแสดงนำในบท Bernadette Fox

    หนังมีพื้นฐานเป็น Comedy ผสม Drama โดยเป็นเหตุการณ์หลังจากการหายตัวไปอย่างน่างงงวยของ Bernadette Fox หญิงที่น่าจะมีความสุขพร้อม เพราะเธอมีทั้งสามี และลูกที่ดี หนังมีกำหนดฉาย มี.ค. ปีหน้า ร่วมด้วยนักแสดงอย่าง Kristen Wiig, Billy Crudup, Laurence Fishburne, Judy Greer

    หนังดัดแปลงจากนิยายขายดีประจำปี 2012 ของมาเรีย แซมเพิล ว่าด้วยเรื่องราวของสถาปนิกผู้เป็นโรคกลัวที่โล่งกับ แม่ที่ชื่อว่า เบอร์นาเดตต์ แบรนช์ ที่หายตัวไปอย่างลึกลับก่อนที่ครอบครัวเดินทางไปท่อง เที่ยวแอนตาร์กติกา ซึ่งบทที่แบลนเช็ตต์อยู่ระหว่างเจรจาที่จะเล่นก็คือบ ทของเบอร์นาเดตต์ แบรนช์ ที่อยู่ในชื่อของนิยายครับ

    ฉบับนิยายมีความเก๋ในการเล่าเรื่องอยู่ที่เล่าผ่านสา ยตาของบี แบรนช์ ลูกสาววัย 15 ของเบอร์นาเดตต์ และยังเล่าผ่านเอกสารต่างๆ เช่นอีเมล, จดหมาย, เอกสารของเอฟบีไอ, จดหมายโต้ตอบของจิตแพทย์ หรือแม้แต่ใบเสร็จค่าห้องฉุกเฉิน ซึ่งคงต้องรอดูกันว่าหนังจะดัดแปลงออกมายังไงครับ

    Format : Matroska
    Format version : Version 4 / Version 2
    File size : 4.00 GiB
    Duration : 1 h 48 min
    Overall bit rate : 5 260 kb/s
    Encoded date : UTC 2020-07-13 12:18:50
    Writing application : mkvmerge v48.0.0 ('Fortress Around Your Heart') 64-bit
    Writing library : libebml v1.4.0 + libmatroska v1.6.0

    Video
    ID : 1
    Format : AVC
    Format/Info : Advanced Video Codec
    Format profile : [email protected]
    Format settings, CABAC : Yes
    Format settings, ReFrames : 4 frames
    Codec ID : V_MPEG4/ISO/AVC
    Duration : 1 h 48 min
    Bit rate : 4 500 kb/s
    Width : 1 920 pixels
    Height : 1 040 pixels
    Display aspect ratio : 1.85:1
    Frame rate mode : Constant
    Frame rate : 23.976 (24000/1001) FPS
    Color space : YUV
    Chroma subsampling : 4:2:0
    Bit depth : 8 bits
    Scan type : Progressive
    Bits/(Pixel*Frame) : 0.094
    Default : Yes
    Forced : No
    Color range : Limited
    Color primaries : BT.709
    Transfer characteristics : BT.709
    Matrix coefficients : BT.709

    Audio #1
    ID : 2
    Format : AC-3
    Format/Info : Audio Coding 3
    Mode extension : CM (complete main)
    Format settings, Endianness : Big
    Codec ID : A_AC3
    Duration : 1 h 48 min
    Bit rate mode : Constant
    Bit rate : 448 kb/s
    Channel(s) : 2 channels
    Channel positions : Front: L R
    Sampling rate : 48.0 kHz
    Frame rate : 31.250 FPS (1536 spf)
    Compression mode : Lossy
    Stream size : 349 MiB (9%)
    Language : Thai
    Default : Yes
    Forced : No

    Audio #2
    ID : 3
    Format : AC-3
    Format/Info : Audio Coding 3
    Mode extension : CM (complete main)
    Format settings, Endianness : Big
    Codec ID : A_AC3
    Duration : 1 h 48 min
    Bit rate mode : Constant
    Bit rate : 448 kb/s
    Channel(s) : 6 channels
    Channel positions : Front: L C R, Side: L R, LFE
    Sampling rate : 48.0 kHz
    Frame rate : 31.250 FPS (1536 spf)
    Compression mode : Lossy
    Stream size : 349 MiB (9%)
    Language : English
    Default : No
    Forced : No

    Text
    ID : 4
    Format : VobSub
    Muxing mode : zlib
    Codec ID : S_VOBSUB
    Codec ID/Info : Picture based subtitle format used on DVDs
    Duration : 1 h 47 min
    Bit rate : 13.6 kb/s
    Count of elements : 2203
    Stream size : 10.5 MiB (0%)
    Language : English
    Default : No
    Forced : No





    Download: cornfile
    http://cornfile.com/84qb67zcv04g
    Download: mekafile
    meka รออัพ..*ระบบล่ม*

  2. The Following 3 Users Say Thank You to Duckload.us For This Useful Post:

    amorn wichian (08-10-2020), Jodz14 (08-14-2020), Tatum03 (08-09-2020)

  3. #2
    Senior Member
    สมัครเมื่อ
    Jul 2013
    โพสต์
    1,130
    Thanks
    0
    Thanked 0 Times in 0 Posts
    ขอบคุรครับ

  4. #3
    Senior Member
    สมัครเมื่อ
    Oct 2013
    ที่อยู่
    Thailand
    โพสต์
    1,381
    Thanks
    1,250
    Thanked 0 Times in 0 Posts
    ขอบคุณมาก

+ ตอบกลับกระทู้

ข้อมูลกระทู้

Users Browsing this Thread

ในขณะนี้มี 1 ท่านดูกระทู้อยู่. (0 สมาชิกและ 1 ผู้เยี่ยมชม)

     

กฎการโพสต์ข้อความ

  • ท่าน ไม่สามารถ ตั้งกระทู้ใหม่ได้
  • ท่าน ไม่สามารถ ตอบกระทู้ได้
  • ท่าน ไม่สามารถ แนบไฟล์ได้
  • ท่าน ไม่สามารถ แก้ไขข้อความโพสต์ได้
  • BB code สถานะ เปิด
  • Smilies สถานะ เปิด
  • [IMG] สถานะ เปิด
  • HTML สถานะ ปิด