+ ตอบกลับกระทู้
สรุปผลการค้นหา 1 ถึง 2 จากทั้งหมด 2
  1. #1
    Administrators รูปส่วนตัว Duckload.us
    สมัครเมื่อ
    Dec 2010
    โพสต์
    119,824
    Thanks
    7
    Thanked 125,278 Times in 56,033 Posts

    Lightbulb [ฝรั่ง]-Lovecraft.Country.[S01E01-10].Whiteys.on.the.Moon [เสียง:อังกฤษ AC-3 ][บรรยาย: ไทย HBO PGS-อังกฤษ]-WEB-DL.H.264.1080p. [From HD-TV]-[Soundtrack บรรยายไทย]








    เลิฟคราฟต์คันทรี่ ซีซั่น 1
    ด้วยกันกับเพื่อนและลุงของเขา Atticus เริ่มต้นการเดินทางไปบนถนนข้ามยุค 50 ของ Jim Crow America เพื่อตามหาพ่อที่หายไป สิ่งที่ตามมาคือการต่อสู้เพื่อเอาชีวิตรอดและเอาชนะท ั้งผู้เหยียดสีผิวของชนผิวขาวในอเมริกาและอสุรกายที่ น่าสะพรึงกลัว


    Video
    ID : 1
    Format : AVC
    Format/Info : Advanced Video Codec
    Format profile : [email protected]
    Format settings : CABAC / 4 Ref Frames
    Format settings, CABAC : Yes
    Format settings, Reference fra : 4 frames
    Codec ID : V_MPEG4/ISO/AVC
    Duration : 1 h 9 min
    Bit rate mode : Constant
    Bit rate : 8 413 kb/s
    Nominal bit rate : 10 000 kb/s
    Width : 1 920 pixels
    Height : 1 080 pixels
    Display aspect ratio : 16:9
    Frame rate mode : Constant
    Frame rate : 23.976 (24000/1001) FPS
    Color space : YUV
    Chroma subsampling : 4:2:0
    Bit depth : 8 bits
    Scan type : Progressive
    Bits/(Pixel*Frame) : 0.169
    Stream size : 4.09 GiB (93%)
    Default : Yes
    Forced : No
    Color range : Limited
    Color primaries : BT.709
    Transfer characteristics : BT.709
    Matrix coefficients : BT.709

    Audio
    ID : 2
    Format : E-AC-3
    Format/Info : Enhanced AC-3
    Commercial name : Dolby Digital Plus
    Codec ID : A_EAC3
    Duration : 1 h 9 min
    Bit rate mode : Constant
    Bit rate : 640 kb/s
    Channel(s) : 6 channels
    Channel layout : L R C LFE Ls Rs
    Sampling rate : 48.0 kHz
    Frame rate : 31.250 FPS (1536 SPF)
    Compression mode : Lossy
    Delay relative to video : 12 ms
    Stream size : 319 MiB (7%)
    Title : [English-AC-3]
    Language : English
    Service kind : Complete Main
    Default : Yes
    Forced : No

    Text #1
    ID : 3
    Format : PGS
    Muxing mode : zlib
    Codec ID : S_HDMV/PGS
    Codec ID/Info : Picture based subtitle format used on BDs/HD-DVDs
    Duration : 1 h 5 min
    Bit rate : 43.8 kb/s
    Count of elements : 1726
    Stream size : 20.6 MiB (0%)
    Title : [Thai HBO PGS]
    Language : Thai
    Default : Yes
    Forced : No

    Text #2
    ID : 4
    Format : UTF-8
    Codec ID : S_TEXT/UTF8
    Codec ID/Info : UTF-8 Plain Text
    Duration : 1 h 9 min
    Bit rate : 73 b/s
    Count of elements : 1348
    Stream size : 37.2 KiB (0%)
    Title : SDH
    Language : English
    Default : No
    Forced : No







    1
    http://www.filecondo.com/dl.php?f=Va294d1KaQcy
    2
    http://www.filecondo.com/dl.php?f=Ld1fe51KaQek
    3
    http://www.filecondo.com/dl.php?f=756e141Khpaq
    4
    http://www.filecondo.com/dl.php?f=8df4371KhnnV
    5
    http://www.filecondo.com/dl.php?f=663ad91KiTRJ
    6
    http://www.filecondo.com/dl.php?f=J530d11KlnGL
    7
    http://www.filecondo.com/dl.php?f=Oafc2d1KohkJ
    8
    http://www.filecondo.com/dl.php?f=pf50531KpHQK
    9
    http://www.filecondo.com/dl.php?f=9e3d7e1KsBB9
    10
    http://www.filecondo.com/dl.php?f=Ke833c1KvxVh

  2. #2
    Junior Member
    สมัครเมื่อ
    Aug 2013
    โพสต์
    5
    Thanks
    2
    Thanked 0 Times in 0 Posts
    ช่วยอัพตอนใหม่ให้หน่อยนะครับ ขอบคุณครับ

+ ตอบกลับกระทู้

ข้อมูลกระทู้

Users Browsing this Thread

ในขณะนี้มี 1 ท่านดูกระทู้อยู่. (0 สมาชิกและ 1 ผู้เยี่ยมชม)

     

กฎการโพสต์ข้อความ

  • ท่าน ไม่สามารถ ตั้งกระทู้ใหม่ได้
  • ท่าน ไม่สามารถ ตอบกระทู้ได้
  • ท่าน ไม่สามารถ แนบไฟล์ได้
  • ท่าน ไม่สามารถ แก้ไขข้อความโพสต์ได้
  • BB code สถานะ เปิด
  • Smilies สถานะ เปิด
  • [IMG] สถานะ เปิด
  • HTML สถานะ ปิด