+ ตอบกลับกระทู้
สรุปผลการค้นหา 1 ถึง 3 จากทั้งหมด 3
  1. #1
    Administrators รูปส่วนตัว Duckload.us
    สมัครเมื่อ
    Dec 2010
    โพสต์
    120,776
    Thanks
    7
    Thanked 126,229 Times in 56,384 Posts

    Angry [ฝรั่ง]- 300 ภาค 1-2 (2006-2014) ขุนศึกพันธุ์สะท้านโลก และ มหาศึกกำเนิดอาณาจักร-Blu-ray.DTS.1080p. [Modified]-[พากย์ไทย บรรยายไทย]




    300-1 ขุนศึกพันธุ์สะท้านโลก (2006) 1080p
    พากย์ อังกฤษ DTS พากย์ อังกฤษ ไทย AC-3 บรรยาย อังกฤษ ไทย


    เรื่องย่อ
    “300” คือการเล่าขานย้อนไปถึงความโหดร้ายแห่งสงครามเธอร์โม ไพเล
    ซึ่งกษัตริย์เลโอนิดาส์ (เจอราร์ด บัทเลอร์) และกองทัพสปาร์ตัน 300 นาย
    พลีชีพในการต่อสู้กับเซอร์เซสและกองทัพมหึมาแห่งเปอร ์เซีย ในการเผชิญหน้ากับคู่ต่อสู้ที่มีกำลังท่วมท้น
    กำลังใจและการเสียสละของพวกเขา กลายเป็นแรงบันดาลใจให้กับชาวกรีกทั้งมวลในการร่วมกั นต่อสู้กับกองกำลังข้าศึกชาวเปอร์เซีย
    การขีดเส้นบนผืนทรายเพื่อประชาธิปไตย ภาพยนตร์ได้นำเอานวนิยายกราฟฟิคเรื่องดังของมิลเลอร์ (Sin City)
    มาสู่ความมีชีวิตด้วยการผสานไลฟ์แอ็คชั่นเข้ากับแบ็ค กราวน์เสมือนจริง ที่นำเสนอภาพตำนาน ประวัติศาสตร์โบราณในจินตนาการอันแจ่มชัดของเขา


    General
    Complete name : 300-1 ขุนศึกพันธุ์สะท้านโลก (2006) 1080p.mkv
    Format : Matroska
    Format version : Version 4 / Version 2
    File size : 9.96 GiB
    Duration : 1h 56mn
    Overall bit rate : 12.2 Mbps
    Encoded date : UTC 2015-11-29 22:35:13
    Writing application : mkvmerge v8.2.0 ( World of Adventure ) 64bit
    Writing library : libebml v1.3.1 + libmatroska v1.4.2
    DURATION : 01:56:32.588000000
    NUMBER_OF_FRAMES : 655553
    NUMBER_OF_BYTES : 1319628189
    _STATISTICS_WRITING_APP : mkvmerge v8.2.0 ( World of Adventure ) 64bit
    _STATISTICS_WRITING_DATE_UTC : 2015-11-29 22:35:13
    _STATISTICS_TAGS : BPS DURATION NUMBER_OF_FRAMES NUMBER_OF_BYTES

    Video
    ID : 1
    Format : AVC
    Format/Info : Advanced Video Codec
    Format profile : [email protected]
    Format settings, CABAC : Yes
    Format settings, ReFrames : 4 frames
    Codec ID : V_MPEG4/ISO/AVC
    Duration : 1h 56mn
    Bit rate : 9 384 Kbps
    Width : 1 920 pixels
    Height : 800 pixels
    Display aspect ratio : 2.40:1
    Frame rate mode : Constant
    Frame rate : 23.976 fps
    Color space : YUV
    Chroma subsampling : 4:2:0
    Bit depth : 8 bits
    Scan type : Progressive
    Bits/(Pixel*Frame) : 0.255
    Stream size : 7.65 GiB (77%)
    Writing library : x264 core 142 r2479 dd79a61
    Encoding settings : cabac=1 / ref=3 / deblock=1:0:0 / analyse=0x1:0x111 / me=hex / subme=7 / psy=1 / psy_rd=1.00:0.00 / mixed_ref=1 / me_range=16 / chroma_me=1 / trellis=1 / 8x8dct=0 / cqm=0 / deadzone=21,11 / fast_pskip=1 / chroma_qp_offset=-2 / threads=12 / lookahead_threads=2 / sliced_threads=0 / nr=0 / decimate=1 / interlaced=0 / bluray_compat=0 / constrained_intra=0 / bframes=3 / b_pyramid=2 / b_adapt=1 / b_bias=0 / direct=1 / weightb=1 / open_gop=0 / weightp=2 / keyint=240 / keyint_min=24 / scenecut=40 / intra_refresh=0 / rc_lookahead=40 / rc=crf / mbtree=1 / crf=20.0 / qcomp=0.60 / qpmin=0 / qpmax=69 / qpstep=4 / vbv_maxrate=50000 / vbv_bufsize=62500 / crf_max=0.0 / nal_hrd=none / filler=0 / ip_ratio=1.40 / aq=1:1.00
    Language : English
    Default : Yes
    Forced : No
    Color range : Limited
    Color primaries : BT.709
    Transfer characteristics : BT.709
    Matrix coefficients : BT.709

    Audio #1
    ID : 2
    Format : AC-3
    Format/Info : Audio Coding 3
    Mode extension : CM (complete main)
    Format settings, Endianness : Big
    Codec ID : A_AC3
    Duration : 1h 56mn
    Bit rate mode : Constant
    Bit rate : 448 Kbps
    Channel(s) : 6 channels
    Channel positions : Front: L C R, Side: L R, LFE
    Sampling rate : 48.0 KHz
    Compression mode : Lossy
    Stream size : 374 MiB (4%)
    Title : Thai AC-3
    Language : Thai
    Default : Yes
    Forced : Yes

    Audio #2
    ID : 3
    Format : DTS
    Format/Info : Digital Theater Systems
    Mode : 16
    Format settings, Endianness : Big
    Codec ID : A_DTS
    Duration : 1h 56mn
    Bit rate mode : Constant
    Bit rate : 1 510 Kbps
    Channel(s) : 6 channels
    Channel positions : Front: L C R, Side: L R, LFE
    Sampling rate : 48.0 KHz
    Bit depth : 24 bits
    Compression mode : Lossy
    Stream size : 1.23 GiB (12%)
    Title : Eng DTS
    Language : English
    Default : No
    Forced : No

    Audio #3
    ID : 4
    Format : AC-3
    Format/Info : Audio Coding 3
    Mode extension : CM (complete main)
    Format settings, Endianness : Big
    Codec ID : A_AC3
    Duration : 1h 56mn
    Bit rate mode : Constant
    Bit rate : 640 Kbps
    Channel(s) : 6 channels
    Channel positions : Front: L C R, Side: L R, LFE
    Sampling rate : 48.0 KHz
    Compression mode : Lossy
    Stream size : 534 MiB (5%)
    Title : Eng AC-3
    Language : English
    Default : No
    Forced : No

    Text #1
    ID : 5
    Format : VobSub
    Muxing mode : zlib
    Codec ID : S_VOBSUB
    Codec ID/Info : Picture based subtitle format used on DVDs
    Title : Thai 1080p
    Language : Thai
    Default : No
    Forced : No

    Text #2
    ID : 6
    Format : VobSub
    Muxing mode : zlib
    Codec ID : S_VOBSUB
    Codec ID/Info : Picture based subtitle format used on DVDs
    Title : Thai 480p
    Language : Thai
    Default : No
    Forced : No

    Text #3
    ID : 7
    Format : VobSub
    Muxing mode : zlib
    Codec ID : S_VOBSUB
    Codec ID/Info : Picture based subtitle format used on DVDs
    Title : Eng 1080p
    Language : English
    Default : No
    Forced : No

    Text #4
    ID : 8
    Format : VobSub
    Muxing mode : zlib
    Codec ID : S_VOBSUB
    Codec ID/Info : Picture based subtitle format used on DVDs
    Title : Eng 480p
    Language : English
    Default : No
    Forced : No







    xxxxxxxxxxxxxxxxxxxxxxxxxxxxxxxxxxxxxxxxxxxxxxxxxx xxxxxxx


    300-2 มหาศึกกำเนิดอาณาจักร Rise Of An Empire (2014) 1080p
    พากย์ อังกฤษ DTS พากย์ อังกฤษ ไทย AC-3 บรรยาย อังกฤษ ไทย


    เรื่องย่อ
    300 : Rise of an Empire ว่าด้วยเรื่องราวเมื่อ อาร์ทีมีเซีย แม่ทัพกระหายเลือดจากเปอร์เซีย
    หวังจะล้างแค้นชาวกรีก โทษฐานที่สังหารครอบครัวของเธอเมื่อตอนที่เธอยังเด็ก เกินกว่าจะต่อสู้ได้
    เธอจึงบงการให้เซอร์ซีสทำตามความต้องการเพื่อบรรลุแผ นแก้แค้นของตัวเอง
    โดยผู้ที่จะมารับบทเป็น อาร์ทีมีเซีย นั้นก็คือสาวสวยสุดเซ็กซี่อย่าง เอวา กรีน นั่นเอง
    ซึ่งผู้กำกับ นีล เมอร์โร ให้ความเห็นว่าเธอมีทั้งเสน่ห์ และความเข้มแข็งดุดันเป็นสิ่งดึงดูด
    ที่จะทำให้ผู้ชายยอมตายเพื่อเธอได้เลยทีเดียว !!!


    General
    Complete name : 300-2 มหาศึกกำเนิดอาณาจักร Rise Of An Empire (2014) 1080p.mkv
    Format : Matroska
    Format version : Version 4 / Version 2
    File size : 8.30 GiB
    Duration : 1h 42mn
    Overall bit rate : 11.6 Mbps
    Encoded date : UTC 2016-03-21 18:52:19
    Writing application : mkvmerge v8.2.0 ( World of Adventure ) 64bit
    Writing library : libebml v1.3.1 + libmatroska v1.4.2
    DURATION : 01:42:35.744000000
    NUMBER_OF_FRAMES : 577100
    NUMBER_OF_BYTES : 1161125200
    _STATISTICS_WRITING_APP : mkvmerge v8.2.0 ( World of Adventure ) 64bit
    _STATISTICS_WRITING_DATE_UTC : 2016-03-21 18:52:19
    _STATISTICS_TAGS : BPS DURATION NUMBER_OF_FRAMES NUMBER_OF_BYTES

    Video
    ID : 1
    Format : AVC
    Format/Info : Advanced Video Codec
    Format profile : [email protected]
    Format settings, CABAC : Yes
    Format settings, ReFrames : 5 frames
    Codec ID : V_MPEG4/ISO/AVC
    Duration : 1h 42mn
    Bit rate : 9 169 Kbps
    Width : 1 920 pixels
    Height : 800 pixels
    Display aspect ratio : 2.40:1
    Frame rate mode : Constant
    Frame rate : 23.976 fps
    Color space : YUV
    Chroma subsampling : 4:2:0
    Bit depth : 8 bits
    Scan type : Progressive
    Bits/(Pixel*Frame) : 0.249
    Stream size : 6.46 GiB (78%)
    Writing library : x264 core 142 r2431 ac76440
    Encoding settings : cabac=1 / ref=5 / deblock=1:0:0 / analyse=0x3:0x133 / me=umh / subme=7 / psy=1 / psy_rd=1.00:0.00 / mixed_ref=1 / me_range=16 / chroma_me=1 / trellis=1 / 8x8dct=1 / cqm=0 / deadzone=21,11 / fast_pskip=1 / chroma_qp_offset=-2 / threads=8 / lookahead_threads=1 / sliced_threads=0 / nr=0 / decimate=1 / interlaced=0 / bluray_compat=0 / constrained_intra=0 / bframes=3 / b_pyramid=2 / b_adapt=2 / b_bias=0 / direct=3 / weightb=1 / open_gop=0 / weightp=2 / keyint=250 / keyint_min=23 / scenecut=40 / intra_refresh=0 / rc_lookahead=50 / rc=2pass / mbtree=1 / bitrate=9169 / ratetol=1.0 / qcomp=0.60 / qpmin=0 / qpmax=69 / qpstep=4 / cplxblur=20.0 / qblur=0.5 / ip_ratio=1.40 / aq=1:1.00
    Language : English
    Default : Yes
    Forced : No
    DURATION : 01:42:35.775000000
    NUMBER_OF_FRAMES : 147591
    NUMBER_OF_BYTES : 7052883006
    _STATISTICS_WRITING_APP : mkvmerge v8.2.0 ( World of Adventure ) 64bit
    _STATISTICS_WRITING_DATE_UTC : 2016-03-21 18:52:19
    _STATISTICS_TAGS : BPS DURATION NUMBER_OF_FRAMES NUMBER_OF_BYTES

    Audio #1
    ID : 2
    Format : AC-3
    Format/Info : Audio Coding 3
    Mode extension : CM (complete main)
    Format settings, Endianness : Big
    Codec ID : A_AC3
    Duration : 1h 42mn
    Bit rate mode : Constant
    Bit rate : 448 Kbps
    Channel(s) : 6 channels
    Channel positions : Front: L C R, Side: L R, LFE
    Sampling rate : 48.0 KHz
    Compression mode : Lossy
    Stream size : 329 MiB (4%)
    Title : Thai
    Language : Thai
    Default : Yes
    Forced : Yes

    Audio #2
    ID : 3
    Format : DTS
    Format/Info : Digital Theater Systems
    Mode : 16
    Format settings, Endianness : Big
    Codec ID : A_DTS
    Duration : 1h 42mn
    Bit rate mode : Constant
    Bit rate : 1 509 Kbps
    Channel(s) : 6 channels
    Channel positions : Front: L C R, Side: L R, LFE
    Sampling rate : 48.0 KHz
    Bit depth : 24 bits
    Compression mode : Lossy
    Stream size : 1.08 GiB (13%)
    Title : Eng DTS
    Language : English
    Default : No
    Forced : No

    Audio #3
    ID : 4
    Format : AC-3
    Format/Info : Audio Coding 3
    Mode extension : CM (complete main)
    Format settings, Endianness : Big
    Codec ID : A_AC3
    Duration : 1h 42mn
    Bit rate mode : Constant
    Bit rate : 384 Kbps
    Channel(s) : 6 channels
    Channel positions : Front: L C R, Side: L R, LFE
    Sampling rate : 48.0 KHz
    Compression mode : Lossy
    Stream size : 282 MiB (3%)
    Title : Eng AC-3
    Language : English
    Default : No
    Forced : No

    Text #1
    ID : 5
    Format : VobSub
    Muxing mode : zlib
    Codec ID : S_VOBSUB
    Codec ID/Info : Picture based subtitle format used on DVDs
    Title : Thai
    Language : Thai
    Default : No
    Forced : No

    Text #2
    ID : 6
    Format : VobSub
    Muxing mode : zlib
    Codec ID : S_VOBSUB
    Codec ID/Info : Picture based subtitle format used on DVDs
    Title : Thai Out BIG
    Language : Thai
    Default : No
    Forced : No

    Text #3
    ID : 7
    Format : PGS
    Muxing mode : zlib
    Codec ID : S_HDMV/PGS
    Codec ID/Info : Picture based subtitle format used on BDs/HD-DVDs
    Title : Thai PGS
    Language : Thai
    Default : No
    Forced : No

    Text #4
    ID : 8
    Format : UTF-8
    Codec ID : S_TEXT/UTF8
    Codec ID/Info : UTF-8 Plain Text
    Title : Eng SRT
    Language : English
    Default : No
    Forced : No

    Text #5
    ID : 9
    Format : UTF-8
    Codec ID : S_TEXT/UTF8
    Codec ID/Info : UTF-8 Plain Text
    Title : Eng
    Language : English
    Default : No
    Forced : No

    Text #6
    ID : 10
    Format : PGS
    Muxing mode : zlib
    Codec ID : S_HDMV/PGS
    Codec ID/Info : Picture based subtitle format used on BDs/HD-DVDs
    Title : Eng PGS
    Language : English
    Default : No
    Forced : No

    Text #7
    ID : 11
    Format : PGS
    Muxing mode : zlib
    Codec ID : S_HDMV/PGS
    Codec ID/Info : Picture based subtitle format used on BDs/HD-DVDs
    Title : French
    Language : French
    Default : No
    Forced : No

    Text #8
    ID : 12
    Format : PGS
    Muxing mode : zlib
    Codec ID : S_HDMV/PGS
    Codec ID/Info : Picture based subtitle format used on BDs/HD-DVDs
    Title : Spanih
    Language : Spanish
    Default : No
    Forced : No

    Text #9
    ID : 13
    Format : PGS
    Muxing mode : zlib
    Codec ID : S_HDMV/PGS
    Codec ID/Info : Picture based subtitle format used on BDs/HD-DVDs
    Title : Portuguese
    Language : Portuguese
    Default : No
    Forced : No






    1 http://cornfile.com/lwadyc8islqs
    2 http://cornfile.com/5hcxfimumh0o

  2. The Following 2 Users Say Thank You to Duckload.us For This Useful Post:

    agg001 (11-20-2020), kappa (10-10-2020)

  3. #2
    Senior Member
    สมัครเมื่อ
    Jun 2014
    โพสต์
    5,123
    Thanks
    0
    Thanked 0 Times in 0 Posts
    ขอบคุณครับ

  4. #3
    Senior Member
    สมัครเมื่อ
    Jan 2011
    โพสต์
    762
    Thanks
    1,032
    Thanked 0 Times in 0 Posts
    ขอบคุณครับ

+ ตอบกลับกระทู้

ข้อมูลกระทู้

Users Browsing this Thread

ในขณะนี้มี 1 ท่านดูกระทู้อยู่. (0 สมาชิกและ 1 ผู้เยี่ยมชม)

     

กฎการโพสต์ข้อความ

  • ท่าน ไม่สามารถ ตั้งกระทู้ใหม่ได้
  • ท่าน ไม่สามารถ ตอบกระทู้ได้
  • ท่าน ไม่สามารถ แนบไฟล์ได้
  • ท่าน ไม่สามารถ แก้ไขข้อความโพสต์ได้
  • BB code สถานะ เปิด
  • Smilies สถานะ เปิด
  • [IMG] สถานะ เปิด
  • HTML สถานะ ปิด