+ ตอบกลับกระทู้
สรุปผลการค้นหา 1 ถึง 3 จากทั้งหมด 3
  1. #1
    Administrators รูปส่วนตัว Duckload.us
    สมัครเมื่อ
    Dec 2010
    โพสต์
    151,817
    Thanks
    7
    Thanked 158,780 Times in 69,420 Posts

    Angry [ฝรั่ง]- Meet Joe Black อลังการรักข้ามโลก (1998) (พากษ์: ไทย-อังกฤษ) (บรรยาย: ไทย-อังกฤษ)-Blu-ray.AC-3.1080p. [Master]-[พากย์ไทย บรรยายไทย]



    Meet Joe Black อลังการรักข้ามโลก (1998) (พากษ์: ไทย-อังกฤษ) (บรรยาย: ไทย-อังกฤษ) [1080p BluRay x265 HEVC 10bit]
    Death, who takes the form of a young man, asks a media mogul to act as a guide to teach him life on Earth, and in the process, he falls in love with his guide's daughter.EN
    Director: Martin Brest
    Writers: Ron Osborn (screenplay), Jeff Reno (screenplay) | 6 more credits »
    Stars: Brad Pitt, Anthony Hopkins, Claire Forlani

    วันที่ออกฉาย: 29 มกราคม 2542 (ประเทศไทย)
    ผู้กำกับ: มาร์ติน เบรสต์
    ประพันธ์ดนตรีโดย: โธมัส นิวแมน
    เพลงเด่น: Whisper of a Thrill
    รางวัลที่ได้รับการเสนอชื่อเข้าชิง
    Saturn Award for Best Supporting Actress
    พ.ศ. 2542 · แคลร์ ฟอร์ลานี
    Golden Reel Award for Best Sound Editing - Dialogue and ADR in a Feature Film
    พ.ศ. 2542
    Saturn Award for Best Music
    พ.ศ. 2542 · โธมัส นิวแมน
    Saturn Award for Best Actor
    พ.ศ. 2542 · แอนโทนี ฮ็อปกินส์

    Meet Joe Black เป็นภาพยนตร์แฟนตาซีโรแมนติกอเมริกันปี 1998 กำกับและอำนวยการสร้างโดยมาร์ตินเบรสต์และนำแสดงโดยแ บรดพิตต์, แอนโทนี่ฮอปกิ้นส์และแคลร์ฟอร์ลานี บทภาพยนตร์ของ Bo Goldman, Kevin Wade, Ron Osborn และ Jeff Reno มีพื้นฐานมาจากภาพยนตร์ 1934 Death Takes a Holiday
    Meet Joe Black is a 1998 American romantic fantasy film directed and produced by Martin Brest, and starring Brad Pitt, Anthony Hopkins, and Claire Forlani. The screenplay by Bo Goldman, Kevin Wade, Ron Osborn and Jeff Reno is loosely based on the 1934 film Death Takes a Holiday.

    It was the second pairing of Hopkins and Pitt after their 1994 film Legends of the Fall. The film received mixed reviews from critics. It grossed $143 million worldwide.

    Plot
    Billionaire media mogul Bill Parrish is considering a merger between his company and another media giant and is to celebrate his 65th birthday with an elaborate party planned by his eldest daughter, Allison. His youngest daughter, Susan, a resident in internal medicine, is in a relationship with one of Bill's board members, Drew. She is considering marriage, but Bill can tell that she is not passionately in love. When she asks for the short version of his impassioned speech, he simply says, Stay open. Who knows? Lightning could strike! . When their company helicopter lands, he begins to hear a mysterious voice, which he tries with increasing difficulty to ignore.

    Susan meets a vibrant young man at a coffee shop. He takes an interest in her and tells her that lightning may strike. She is enamored but parts without getting his name. Unbeknownst to her, the man is struck by multiple cars in a possibly fatal collision.

    Death arrives at Bill's home in the uninjured body of the young man, explaining that Bill's impassioned speech has piqued his interest. Given Bill's competence, experience, and wisdom , Death says that for as long as Bill will be his guide on Earth, Bill will not have to die. Making up a name on the spot, Death is introduced to the family as Joe Black .

    Bill's best efforts to navigate the next few days, knowing them now to be his last, fail to keep events from going rapidly out of his control. Drew is secretly conspiring with a man bidding for Parrish Communications. He capitalizes on Bill's strange behavior and unexplained reliance on Joe to convince the board of directors to vote Bill out as chairman, using information given to him inadvertently by Bill's son-in-law, Quince, to push through approval for the merger which Bill had decided to oppose. Quince is devastated.

    Susan is confused by the appearance of Joe, believing him to be the young man from the coffee shop, but eventually falls deeply in love with him. Joe is now under the influence of human desires and becomes attracted to her as well. After they make love, Joe asks Susan, What do we do now? She replies, It'll come to us . Bill angrily confronts Joe his relationship with his daughter, but Joe declares his intention to take Susan with him for his own.

    As his last birthday arrives, Bill appeals to Joe to recognize the meaning of true love and all it encompasses, especially honesty and sacrifice. Joe comes to understand that he must set aside his own desire and allow Susan to live her life. He also helps Bill regain control of his company, exposing Drew's underhanded business dealings to the board by claiming to be an agent of the Internal Revenue Service and threatening to put Drew in jail.

    At the party, Bill makes his peace with his daughters. Susan tells Joe that she has loved him ever since that day in the coffee shop.

    Joe realizes that Susan loves the unknown man, not him, and the realization crushes him slightly. Mastering his emotions powerfully he balks at telling Susan who he really is, although she seems to intuit his true identity. Struggling to comprehend the magnitude of the situation, Susan cannot label Joe as Death. She says finally, You're, you're Joe . He promises her you will always have what you found in the coffee shop . On a hillock in the grounds above the party, Bill expresses trepidation, asking Should I be afraid? , Joe replies Not a man like you . Fireworks explode in the distance while Susan watches Joe and her father walk out of view.

    Susan is stunned as Joe reappears alone, bewildered, this time as the young man from the coffee shop. He is uninjured and cannot account for how he got there. Susan accepts that her father is gone, and rekindles the romantic spark she had shared with the young man. What do we do now? she asks. It'll come to us , Joe replies, as the two of them descend towards the twinkling lights of the party.

    เรื่องย่อ...วิลเลี่ยม แพริช (Anthony Hopkins) มหาเศรษฐีนักธุรกิจผู้มั่งคั่ง กำลังป่วยด้วยโรคหัวใจและรู้ตัวว่าเองว่ากำลังมีอากา รผิดปกติ วันหนึ่งเกิดปรากฎร่างของยมทูตตนหนึ่งที่เข้ามาบอกมห าเศรษฐีชราผู้มั่งคั่งร่ำรวยว่าเค้ากำลังจะตายในอีกไ ม่นาน โดยยมทูตตนนั้นได้ยื่นขอเสนอหนึ่งให้แก่มหาเศรษฐีชรา ในการทำตัวเป็นผู้ดูแลยมทูตตนนี้ในการท่องเที่ยวและเ รียนรู้ชีวิตคนบนโลกมนุษย์แลกกับการยือเวลาการมีชีวิ ตอยู่ของมหาเศรษฐีชราต่อไปสักระยะหนึ่ง ยมทูตตนนั้นได้แปลงกายเป็นชายหนุ่มนามว่า โจ แบล๊ค (Brad Pitt) และอาศัยอยู่ในบ้านของวิลเลี่ยม แพริช ในฐานะผู้ติดตามคนสนิท

    ต่อมาโจได้พบกับซูซาน (Claire Forlani) ลูกสาวคนเล็กของวิลเลี่ยม แพริช และจากความใกล้ชิดกันทำให้โจและซูซานเกิดตกหลุมรักแล ะกัน และเมื่อวิลเลี่ยมรับรู้เรื่องนี้สร้างความไม่พอใจต่ อเค้าเป็นอันมาก และเมื่อโจต้องการตัวซูซานไปอยู่กับเค้าด้วยทำให้วิล เลี่ยมต้องลุกขึ้นต้องสู้และทำทุกทางที่จะปกป้องลูกส าวที่เค้ารักก่อนที่เค้าจะลาจากโลกนี้ไป !!!

    General
    Format : Matroska
    Format version : Version 4
    File size : 9.48 GiB
    Duration : 3 h 0 min
    Overall bit rate : 7 520 kb/s
    Encoded date : UTC 2020-09-06 08:08:05
    Writing application : mkvmerge v49.0.0 ('Sick Of Losing Soulmates') 64-bit
    Writing library : libebml v1.4.0 + libmatroska v1.6.1

    Video
    ID : 1
    Format : HEVC
    Format/Info : High Efficiency Video Coding
    Format profile : Main 10@L4@Main
    Codec ID : V_MPEGH/ISO/HEVC
    Duration : 3 h 0 min
    Bit rate : 6 000 kb/s
    Width : 1 920 pixels
    Height : 1 040 pixels
    Display aspect ratio : 1.85:1
    Frame rate mode : Constant
    Frame rate : 23.976 (24000/1001) FPS
    Color space : YUV
    Chroma subsampling : 4:2:0
    Bit depth : 10 bits
    Bits/(Pixel*Frame) : 0.125
    Stream size : 7.57 GiB (80%)
    Writing library : x265 3.2+23-52135ffd9bcd:[Windows][GCC 9.2.0][64 bit] 10bit
    Default : Yes
    Forced : No

    Audio #1
    ID : 2
    Format : AC-3
    Format/Info : Audio Coding 3
    Commercial name : Dolby Digital
    Codec ID : A_AC3
    Duration : 3 h 0 min
    Bit rate mode : Constant
    Bit rate : 640 kb/s
    Channel(s) : 6 channels
    Channel layout : L R C LFE Ls Rs
    Sampling rate : 48.0 kHz
    Frame rate : 31.250 FPS (1536 SPF)
    Compression mode : Lossy
    Stream size : 827 MiB (9%)
    Language : English
    Service kind : Complete Main
    Default : No
    Forced : Yes

    Audio #2
    ID : 3
    Format : AC-3
    Format/Info : Audio Coding 3
    Commercial name : Dolby Digital
    Codec ID : A_AC3
    Duration : 3 h 0 min
    Bit rate mode : Constant
    Bit rate : 448 kb/s
    Channel(s) : 6 channels
    Channel layout : L R C LFE Ls Rs
    Sampling rate : 48.0 kHz
    Frame rate : 31.250 FPS (1536 SPF)
    Compression mode : Lossy
    Stream size : 578 MiB (6%)
    Language : Thai
    Service kind : Complete Main
    Default : No
    Forced : Yes

    Audio #3
    ID : 4
    Format : AAC LC
    Format/Info : Advanced Audio Codec Low Complexity
    Codec ID : A_AAC-2
    Duration : 3 h 0 min
    Bit rate : 420 kb/s
    Channel(s) : 6 channels
    Channel layout : C L R Ls Rs LFE
    Sampling rate : 48.0 kHz
    Frame rate : 46.875 FPS (1024 SPF)
    Compression mode : Lossy
    Delay relative to video : 20 ms
    Stream size : 542 MiB (6%)
    Title : AAC LC 5.1CH
    Language : English
    Default : Yes
    Forced : No

    Text #1
    ID : 5
    Format : VobSub
    Muxing mode : zlib
    Codec ID : S_VOBSUB
    Codec ID/Info : Picture based subtitle format used on DVDs
    Duration : 2 h 53 min
    Bit rate : 9 636 b/s
    Count of elements : 2010
    Stream size : 11.9 MiB (0%)
    Language : English
    Default : No
    Forced : No

    Text #2
    ID : 6
    Format : VobSub
    Muxing mode : zlib
    Codec ID : S_VOBSUB
    Codec ID/Info : Picture based subtitle format used on DVDs
    Duration : 2 h 58 min
    Bit rate : 7 019 b/s
    Count of elements : 1933
    Stream size : 8.98 MiB (0%)
    Language : Thai
    Default : Yes
    Forced : No


    http://cornfile.com/gvsm92ye5fku

  2. #2
    Senior Member
    สมัครเมื่อ
    Jun 2014
    โพสต์
    5,087
    Thanks
    0
    Thanked 0 Times in 0 Posts
    ขอบคุณครับ

  3. #3
    Senior Member รูปส่วนตัว aiekung
    สมัครเมื่อ
    Jul 2015
    โพสต์
    117
    Thanks
    0
    Thanked 0 Times in 0 Posts
    Load ไม่ได้ครับ

+ ตอบกลับกระทู้

ข้อมูลกระทู้

Users Browsing this Thread

ในขณะนี้มี 1 ท่านดูกระทู้อยู่. (0 สมาชิกและ 1 ผู้เยี่ยมชม)

     

กฎการโพสต์ข้อความ

  • ท่าน ไม่สามารถ ตั้งกระทู้ใหม่ได้
  • ท่าน ไม่สามารถ ตอบกระทู้ได้
  • ท่าน ไม่สามารถ แนบไฟล์ได้
  • ท่าน ไม่สามารถ แก้ไขข้อความโพสต์ได้
  • BB code สถานะ เปิด
  • Smilies สถานะ เปิด
  • [IMG] สถานะ เปิด
  • HTML สถานะ ปิด