ซีรี่ย์เกาหลี: When the Weather is Fine
ชื่อภาษาไทย: อากาศเป็นใจ ให้ฉันรักเธอ
ประเภท: Romance, Drama
จำนวนตอน: 16
นำแสดงโดย: Park Min Young, Seo Kang Joon, Moon Jung Hee, Lee Jae Wook, Im Se Mi
ผู้กำกับ: Han Ji Seung
เขียนบทโดย: Han Ga Ram
ออกอากาศทางสถานีโทรทัศน์: Viu
เริ่มออกอากาศ: 29 ส.ค. 2563
เวลาออกอากาศ: ทุกวันเสาร์ - วันอาทิตย์ เวลา 08:00 น.
นักแสดง:
Park Min Young as Mok Hae Won
Seo Kang Joon as Im Eun Sub
Mok Hae Won’s Family
Moon Jung Hee as Sim Myung Yeo
Jin Hee Kyung as Sim Myung Joo (Hae Won’s mother)
Im Eun Sub’s Family
Kim Hwan Hee as Im Hwi
Nam Gi Ae as Yoon Yeo Jung
Kang Shin Il as Im Jong Pil (Eun Sup’s father)
High School Alumni
Lee Jae Wook as Lee Jang Woo
Im Se Mi as Kim Bo Young
Kim Young Dae as Oh Yeong Woo
Yang Hye Ji as Ji Eun Sil
Bookstore Club Member
Lee Tae Hyung as Bae Geun Sang
Lee Sun Hee as Choi Soo Jung
Choo Ye Jin as Kwon Hyun Ji
Han Chang Min as Jeong Seung Ho
Others
Lee Bong Ryun as Pharmacist
Kim Dae Gun
Hwang Gun as Cha Yoon Taek
Noh Jae Hoon as Joong Hee
Sysopsis: เรื่องราวอบอุ่นหัวใจเกี่ยวกับการให้อภัย การเยียวยาและความรักที่เกิดขึ้นรอบๆร้านหนังสือเล็ก ๆในชนบท มกแฮวอน (พัคมินยอง) หญิงสาวธรรมดา จิตใจดี เธอเล่นเชลโล่มาตั้งแต่เด็ก แฮวอนใช้ความสามารถในการเล่นเชลโล่เข้าสังคม แต่วันหนึ่งเกิดเรื่องบางอย่างขึ้น ทำให้เธอเสียความรู้สึก แฮวอนปิดใจให้คนอื่นและไม่เชื่อใจใครอีกต่อไป เธอเบื่อและเหนื่อยกับชีวิตในโซล จึงตัดสินใจย้ายกลับไปบ้านเกิดในหมู่บ้านบุคฮยอน ที่นั่นแฮวอนได้พบกับอึนซอบ เขาเป็นเจ้าของร้านหนังสือที่มีชื่อว่า “ราตรีสวัสดิ์” อึนซอบมีชีวิตประจำวันที่เรียบง่าย เขาตื่นเช้า ดื่มกาแฟ อ่านหนังสือและเขียนเรื่องราวลงในบล็อก ชีวิตที่แสนเรียบง่ายของอึนซอบต้องเปลี่ยนไปหลังจากพ บแฮวอน มาติดตามชมกันได้ในซีรี่ย์เกาหลี When the Weather is Fine อากาศเป็นใจ ให้ฉันรักเธอ
Credit: franky

General
Unique ID : 118535294341732127795968158281656321652 (0x592D1139855B6AB5649AC2CB09664674)
Complete name : L:When the Weather is Fine อากาศเป็นใจ ให้ฉันรักเธอWhen.the.Weather.is.Fine.2020.S01E08.1 080p.WEB-DL.Viu.AAC.H.264.mkv
Format : Matroska
Format version : Version 4
File size : 828 MiB
Duration : 1 h 1 min
Overall bit rate mode : Variable
Overall bit rate : 1 890 kb/s
Encoded date : UTC 2020-09-07 19:42:41
Writing application : mkvmerge v19.0.0 ('Brave Captain') 64-bit
Writing library : libebml v1.3.5 + libmatroska v1.4.8

Video
ID : 1
Format : AVC
Format/Info : Advanced Video Codec
Format profile : [email protected]
Format settings : CABAC / 4 Ref Frames
Format settings, CABAC : Yes
Format settings, Reference fra : 4 frames
Codec ID : V_MPEG4/ISO/AVC
Duration : 1 h 1 min
Bit rate mode : Variable
Bit rate : 1 620 kb/s
Maximum bit rate : 4 500 kb/s
Width : 1 920 pixels
Height : 1 080 pixels
Display aspect ratio : 16:9
Frame rate mode : Constant
Frame rate : 29.970 (30000/1001) FPS
Original frame rate : 29.970 (29970/1000) FPS
Color space : YUV
Chroma subsampling : 4:2:0
Bit depth : 8 bits
Scan type : Progressive
Bits/(Pixel*Frame) : 0.026
Stream size : 710 MiB (86%)
Writing library : VOLO1.4.1
Default : Yes
Forced : No

Audio #1
ID : 2
Format : AAC LC
Format/Info : Advanced Audio Codec Low Complexity
Codec ID : A_AAC-2
Duration : 1 h 1 min
Bit rate : 96.0 kb/s
Channel(s) : 2 channels
Channel layout : L R
Sampling rate : 48.0 kHz
Frame rate : 46.875 FPS (1024 SPF)
Compression mode : Lossy
Delay relative to video : -43 ms
Stream size : 42.1 MiB (5%)
Language : Thai
Default : Yes
Forced : No

Audio #2
ID : 3
Format : AAC LC
Format/Info : Advanced Audio Codec Low Complexity
Codec ID : A_AAC-2
Duration : 1 h 1 min
Bit rate : 165 kb/s
Channel(s) : 2 channels
Channel layout : L R
Sampling rate : 48.0 kHz
Frame rate : 46.875 FPS (1024 SPF)
Compression mode : Lossy
Delay relative to video : -23 ms
Stream size : 72.5 MiB (9%)
Language : Korean
Default : No
Forced : No

Text #1
ID : 4
Format : UTF-8
Codec ID : S_TEXT/UTF8
Codec ID/Info : UTF-8 Plain Text
Duration : 1 h 0 min
Bit rate : 77 b/s
Count of elements : 551
Stream size : 34.3 KiB (0%)
Language : Thai
Default : Yes
Forced : No

Text #2
ID : 5
Format : PGS
Muxing mode : zlib
Codec ID : S_HDMV/PGS
Codec ID/Info : Picture based subtitle format used on BDs/HD-DVDs
Duration : 1 h 0 min
Bit rate : 11.9 kb/s
Count of elements : 1102
Stream size : 5.13 MiB (1%)
Language : Thai
Default : No
Forced : No




1
http://www.filecondo.com/dl.php?f=o502f51KhYdD
2
http://www.filecondo.com/dl.php?f=Uf54351KhYeA
3
http://www.filecondo.com/dl.php?f=b930641KhYfy
4
http://www.filecondo.com/dl.php?f=S4db651KhYgx
5
http://www.filecondo.com/dl.php?f=4ca7d51KhYhu
6
http://www.filecondo.com/dl.php?f=vd99661KhYit
7
http://www.filecondo.com/dl.php?f=Gc62cd1KhYjq
8
http://www.filecondo.com/dl.php?f=ba8b371KhYko
9
http://www.filecondo.com/dl.php?f=q8240a1KiPUE
10
http://www.filecondo.com/dl.php?f=T9417a1KiPVC
11
http://www.filecondo.com/dl.php?f=H3bac81KiPWC
12
http://www.filecondo.com/dl.php?f=e856eb1KiPXB