+ ͺѺз
ػšä 1 ֧ 2 ҡ 2
  1. #1
    Administrators ٻǹ Duckload.us
    Ѥ
    Dec 2010
    ʵ
    118,309
    Thanks
    7
    Thanked 124,419 Times in 55,676 Posts

    Angry []-[4K] Robin Hood Prince of Thieves (1991) [Extended] ҡ : TH AC3 / EN AC3-4K Blu-ray.AC-3.2160p. [Modified]-[ҡ ]



    ˹ѧ礪 ҹӡѺͧ Թ Ŵ Էҹԡ Ҵͧͧ û ժ§ҡû鹤 ᨡ餹 úԹ ͡ (Թ ) úԹԹҧѺҹ ѧҡ仹ҹ ҾҤͺ зѾѵԢͧⴹ ¹ͧ͵ԧ ըԵҺ ¼ѧѴºЪҪ ѧա úԹ駻Ըҹ ҨеͧѺ ͷ١ Ѻҧ ҡ͹ Ԫ ѧҡ龺Ѻ Ե е騹ª öҵͧ ˹Ңͧû ֧ ʡŵ Ӥѭ˹觢ͧ ҹѡ úԹҧ Ѻоäǡء駷͡ Եͧҵͧ§ʹ ǡѺ˭ԧ ҵѡ ¹

    General
    Unique ID : 242661661954530725097925449871855999 (0x2EBC24C5E2AF3883003D35BD89117F)
    Complete name : C:UsersRedruMDownloads[HD][4K] Robin Hood Prince of Thieves[1991][Extended Cut].mkv
    Format : Matroska
    Format version : Version 4
    File size : 7.90 GiB
    Duration : 2 h 35 min
    Overall bit rate : 7 296 kb/s
    Encoded date : UTC 2020-08-28 12:06:01
    Writing application : mkvmerge v49.0.0 ('Sick Of Losing Soulmates') 64-bit
    Writing library : libebml v1.4.0 + libmatroska v1.6.1
    Cover : Yes
    Attachments : cover.jpg

    Video
    ID : 1
    Format : HEVC
    Format/Info : High Efficiency Video Coding
    Format profile : Main [email protected]@Main
    Codec ID : V_MPEGH/ISO/HEVC
    Duration : 2 h 35 min
    Bit rate : 6 001 kb/s
    Width : 3 840 pixels
    Height : 2 160 pixels
    Display aspect ratio : 16:9
    Frame rate mode : Constant
    Frame rate : 23.976 (24000/1001) FPS
    Color space : YUV
    Chroma subsampling : 4:2:0
    Bit depth : 10 bits
    Bits/(Pixel*Frame) : 0.030
    Stream size : 6.50 GiB (82%)
    Writing library : x265 3.2+9-971180b100f8:[Windows][GCC 9.2.0][64 bit] 10bit

    Audio #1
    ID : 2
    Format : AC-3
    Format/Info : Audio Coding 3
    Commercial name : Dolby Digital
    Codec ID : A_AC3
    Duration : 2 h 35 min
    Bit rate mode : Constant
    Bit rate : 640 kb/s
    Channel(s) : 6 channels
    Channel layout : L R C LFE Ls Rs
    Sampling rate : 48.0 kHz
    Frame rate : 31.250 FPS (1536 SPF)
    Compression mode : Lossy
    Stream size : 710 MiB (9%)
    Title : Thai AC-3 5.1
    Language : Thai
    Service kind : Complete Main
    Default : Yes
    Forced : No

    Audio #2
    ID : 3
    Format : AC-3
    Format/Info : Audio Coding 3
    Commercial name : Dolby Digital
    Codec ID : A_AC3
    Duration : 2 h 35 min
    Bit rate mode : Constant
    Bit rate : 640 kb/s
    Channel(s) : 6 channels
    Channel layout : L R C LFE Ls Rs
    Sampling rate : 48.0 kHz
    Frame rate : 31.250 FPS (1536 SPF)
    Compression mode : Lossy
    Stream size : 710 MiB (9%)
    Title : English AC-3 5.1
    Language : English
    Service kind : Complete Main
    Default : No
    Forced : No

    Text #1
    ID : 4
    Format : VobSub
    Muxing mode : zlib
    Codec ID : S_VOBSUB
    Codec ID/Info : Picture based subtitle format used on DVDs
    Duration : 2 h 32 min
    Bit rate : 6 948 b/s
    Count of elements : 1472
    Stream size : 7.59 MiB (0%)
    Title : Thai VOB Yellow
    Language : Thai
    Default : No
    Forced : No

    Text #2
    ID : 5
    Format : VobSub
    Muxing mode : zlib
    Codec ID : S_VOBSUB
    Codec ID/Info : Picture based subtitle format used on DVDs
    Duration : 2 h 32 min
    Bit rate : 6 948 b/s
    Count of elements : 1472
    Stream size : 7.59 MiB (0%)
    Title : Thai VOB
    Language : Thai
    Default : No
    Forced : No

    Text #3
    ID : 6
    Format : VobSub
    Muxing mode : zlib
    Codec ID : S_VOBSUB
    Codec ID/Info : Picture based subtitle format used on DVDs
    Duration : 2 h 32 min
    Bit rate : 7 751 b/s
    Count of elements : 1539
    Stream size : 8.44 MiB (0%)
    Title : English VOB
    Language : English
    Default : No
    Forced : No

    Text #4
    ID : 7
    Format : ASS
    Codec ID : S_TEXT/ASS
    Codec ID/Info : Advanced Sub Station Alpha
    Duration : 2 h 27 min
    Bit rate : 72 b/s
    Count of elements : 1473
    Compression mode : Lossless
    Stream size : 78.6 KiB (0%)
    Title : English ASS
    Language : English
    Default : No
    Forced : No

    Menu
    00:00:00.000 : en:Credits
    00:02:19.681 : en:English Courage
    00:05:57.774 : en:Our Way Lies Together
    00:08:16.954 : en:Locksley Tragedy
    00:10:59.659 : en:Home
    00:15:35.559 : en:Gisborne's Welcome
    00:20:08.290 : en:Murderous Portents
    00:23:47.134 : en:World Upside Down
    00:27:07.417 : en:Marian's Welcome
    00:31:15.748 : en:Getting Reacquainted
    00:34:46.084 : en:Cross-Country Flight
    00:37:32.041 : en:The Forest Has Eyes
    00:41:24.732 : en:Quarterstaff Duel
    00:44:35.506 : en:Outlaw Campfire
    00:47:40.566 : en:Sunday Worship
    00:50:58.764 : en:Visiting the Bishop
    00:56:04.861 : en:Planning to Lead
    00:58:17.035 : en:One True Weapon
    01:02:18.735 : en:Call Off Christmas
    01:07:56.697 : en:Feisty Friar
    01:14:22.332 : en:Gisborne Penalized
    01:16:17.197 : en:Glimpse of Robin
    01:18:49.307 : enistractions Camp Tour
    01:22:39.621 : en:Salt of the Earth
    01:25:47.433 : en:Medical Emergency
    01:29:40.958 : en: I'll Do It for You.
    01:32:10.525 : en:Undelivered Message
    01:34:41.676 : en:In His Palm
    01:37:30.511 : en:Marian Abducted
    01:40:27.062 : en:Overrun By Celts
    01:43:45.385 : en:Fiery Assualt
    01:47:24.646 : en:The Sheriff's Proposal
    01:52:12.183 : en:Will's Bargain
    01:54:24.357 : en:Finish What's Been Started
    01:59:35.835 : en:Hole in the Wall
    02:01:52.346 : en: Your Are Me.
    02:04:26.417 : en:Battle Positions
    02:08:23.654 : en:Will Exposed
    02:12:02.122 : en:Cheating the Hangman
    02:16:21.214 : en:Storming the Castle
    02:18:29.384 : en:Martial Mayhem
    02:21:34.652 : enropping In
    02:23:26.723 : en:Final Duel
    02:27:00.520 : en:Vow Fulfilled
    02:28:11.173 : en:Royal Guest
    02:30:23.180 : en:End Credits

    http://cornfile.com/vn7gv3rzlu62

  2. #2
    Senior Member
    Ѥ
    Jul 2012
    ʵ
    7,068
    Thanks
    0
    Thanked 0 Times in 0 Posts
    ͺسҡ

šз

Users Browsing this Thread

㹢й 1 ҹ١з. (0 Ҫԡ 1 )

     

ʵͤ

  • ҹ ö 駡з
  • ҹ ö ͺз
  • ҹ ö
  • ҹ ö 䢢ͤʵ