+ ตอบกลับกระทู้
สรุปผลการค้นหา 1 ถึง 5 จากทั้งหมด 5
  1. #1
    Administrators รูปส่วนตัว Duckload.us
    สมัครเมื่อ
    Dec 2010
    โพสต์
    119,935
    Thanks
    7
    Thanked 125,351 Times in 56,072 Posts

    Thumbs up [ฝรั่ง]-[* ใหม่!! NETFLIX 18+ *] Dragon's Dogma (2020) : วิถีกล้าอัศวินมังกร - Season 1 [เสียงไทย 5.1 + เสียงอังกฤษ 5.1] [บรรยายไทย + อังกฤษ] [เสียง + ซับไทย Master From Netflix + ซับ SRT , PGS]-WEB-DL.H.264.1080p.




    เรื่องราวของ Dragon's Dogma ฉบับอนิเมะของ Netflix จะเริ่มขึ้นเมื่อมังกรได้กลับมาบุกทำลายหมู่บ้านอีกค รั้ง หลังจากที่หายไปนานเป็นเวลา 100 ปี โดยเนื้อเรื่องจะดำเนินด้วย Ethan ชายผู้ถูกมังกรขโมยหัวใจไป และได้ตื่นขึ้นมาในฐานะ Arisen เขาจึงต้องเดินทางต่อสู้กับมังกรและสัตว์ประหลาดบาปท ั้ง 7 เพื่อปกป้องครอบครัวที่รักและนำหัวใจกลับมา โดยในระหว่างทางนั้นเองที่เขาได้พบกับ Hannah หญิงสาวผู้มีความสามารถในการใช้ธนูเป็นอาวุธ แต่หลังจากที่ Ethan สามารถปราบสัตว์ประหลาดลงได้ เขาก็จะยิ่งค่อยๆ สูญเสียความเป็นมนุษย์มากขึ้นเรื่อยๆ


    Format : Matroska
    Format version : Version 4
    File size : 535 MiB
    Duration : 26 min 20 s
    Overall bit rate mode : Variable
    Overall bit rate : 2 838 kb/s
    Movie name : Dragon's.Dogma.2020.S01E01.1080p.NF.WEB-DL.DDP5.1.x264_SkiesIT
    Encoded date : UTC 2020-09-17 10:40:39
    Writing application : mkvmerge v49.0.0 ('Sick Of Losing Soulmates') 64-bit
    Writing library : libebml v1.4.0 + libmatroska v1.6.1
    Cover : Yes
    Attachments : cover.jpg

    Video
    ID : 1
    Format : AVC
    Format/Info : Advanced Video Codec
    Format profile : [email protected]
    Format settings : CABAC / 1 Ref Frames
    Format settings, CABAC : Yes
    Format settings, Reference frames : 1 frame
    Codec ID : V_MPEG4/ISO/AVC
    Duration : 26 min 19 s
    Bit rate mode : Variable
    Bit rate : 1 503 kb/s
    Maximum bit rate : 6 000 kb/s
    Width : 1 920 pixels
    Height : 1 080 pixels
    Display aspect ratio : 16:9
    Frame rate mode : Constant
    Frame rate : 23.976 (24000/1001) FPS
    Original frame rate : 29.970 (30000/1001) FPS
    Color space : YUV
    Chroma subsampling : 4:2:0
    Bit depth : 8 bits
    Scan type : Progressive
    Bits/(Pixel*Frame) : 0.030
    Stream size : 283 MiB (53%)
    Title : Dragon's.Dogma.2020.S01E01.1080p.NF.WEB-DL.DDP5.1.x264_SkiesIT
    Language : English
    Default : Yes
    Forced : No

    Audio #1
    ID : 2
    Format : E-AC-3
    Format/Info : Enhanced AC-3
    Commercial name : Dolby Digital Plus
    Codec ID : A_EAC3
    Duration : 26 min 20 s
    Bit rate mode : Constant
    Bit rate : 640 kb/s
    Channel(s) : 6 channels
    Channel layout : L R C LFE Ls Rs
    Sampling rate : 48.0 kHz
    Frame rate : 31.250 FPS (1536 SPF)
    Compression mode : Lossy
    Stream size : 121 MiB (23%)
    Language : English
    Service kind : Complete Main
    Default : No
    Forced : No

    Audio #2
    ID : 3
    Format : E-AC-3
    Format/Info : Enhanced AC-3
    Commercial name : Dolby Digital Plus
    Codec ID : A_EAC3
    Duration : 26 min 20 s
    Bit rate mode : Constant
    Bit rate : 640 kb/s
    Channel(s) : 6 channels
    Channel layout : L R C LFE Ls Rs
    Sampling rate : 48.0 kHz
    Frame rate : 31.250 FPS (1536 SPF)
    Compression mode : Lossy
    Stream size : 121 MiB (23%)
    Language : Thai
    Service kind : Complete Main
    Default : Yes
    Forced : No

    Text #1
    ID : 4
    Format : UTF-8
    Codec ID : S_TEXT/UTF8
    Codec ID/Info : UTF-8 Plain Text
    Duration : 25 min 20 s
    Bit rate : 86 b/s
    Count of elements : 253
    Stream size : 16.1 KiB (0%)
    Title : Thai SRT From Netflix
    Language : Thai
    Default : Yes
    Forced : No

    Text #2
    ID : 5
    Format : UTF-8
    Codec ID : S_TEXT/UTF8
    Codec ID/Info : UTF-8 Plain Text
    Duration : 25 min 20 s
    Bit rate : 1 b/s
    Count of elements : 4
    Stream size : 295 Bytes (0%)
    Title : Thai SRT From Netflix Forced
    Language : Thai
    Default : No
    Forced : No

    Text #3
    ID : 6
    Format : UTF-8
    Codec ID : S_TEXT/UTF8
    Codec ID/Info : UTF-8 Plain Text
    Duration : 23 min 18 s
    Bit rate : 38 b/s
    Count of elements : 249
    Stream size : 6.56 KiB (0%)
    Title : English SRT
    Language : English
    Default : No
    Forced : No

    Text #4
    ID : 7
    Format : PGS
    Muxing mode : zlib
    Codec ID : S_HDMV/PGS
    Codec ID/Info : Picture based subtitle format used on BDs/HD-DVDs
    Duration : 25 min 20 s
    Bit rate : 25.9 kb/s
    Count of elements : 506
    Stream size : 4.70 MiB (1%)
    Title : Thai PGS [Angsana]
    Language : Thai
    Default : No
    Forced : No

    Text #5
    ID : 8
    Format : PGS
    Muxing mode : zlib
    Codec ID : S_HDMV/PGS
    Codec ID/Info : Picture based subtitle format used on BDs/HD-DVDs
    Duration : 25 min 20 s
    Bit rate : 25.9 kb/s
    Count of elements : 506
    Stream size : 4.70 MiB (1%)
    Title : Thai PGS [Angsana Yellow]
    Language : Thai
    Default : No
    Forced : No

    Text #6
    ID : 9
    Format : PGS
    Muxing mode : zlib
    Codec ID : S_HDMV/PGS
    Codec ID/Info : Picture based subtitle format used on BDs/HD-DVDs
    Duration : 25 min 20 s
    Bit rate : 25.6 kb/s
    Count of elements : 506
    Stream size : 4.64 MiB (1%)
    Title : Thai PGS [Sarabun]
    Language : Thai
    Default : No
    Forced : No

    Text #7
    ID : 10
    Format : PGS
    Muxing mode : zlib
    Codec ID : S_HDMV/PGS
    Codec ID/Info : Picture based subtitle format used on BDs/HD-DVDs
    Duration : 25 min 20 s
    Bit rate : 25.6 kb/s
    Count of elements : 506
    Stream size : 4.64 MiB (1%)
    Title : Thai PGS [Sarabun Yellow]
    Language : Thai
    Default : No
    Forced : No

    Text #8
    ID : 11
    Format : PGS
    Muxing mode : zlib
    Codec ID : S_HDMV/PGS
    Codec ID/Info : Picture based subtitle format used on BDs/HD-DVDs
    Duration : 23 min 18 s
    Bit rate : 23.9 kb/s
    Count of elements : 498
    Stream size : 3.99 MiB (1%)
    Title : English PGS
    Language : English
    Default : No
    Forced : No












    1 http://www.filecondo.com/dl.php?f=u718d11Kjb2Z
    2 http://www.filecondo.com/dl.php?f=L9e1821Kjb40
    3 http://www.filecondo.com/dl.php?f=Nb18611Kjb4V
    4 http://www.filecondo.com/dl.php?f=Wdf4dc1Kjb5V
    5 http://www.filecondo.com/dl.php?f=bf9ba71Kjb6T
    6 http://www.filecondo.com/dl.php?f=fb1c9a1Kjb7L
    7 http://www.filecondo.com/dl.php?f=Yec0e81Kjb8P


    Dragon's.Dogma.2020.S01E01.1080p.NF.WEB-DL.DDP5.1.x264_SkiesIT.mkv - 534.6 MB
    Dragon's.Dogma.2020.S01E02.1080p.NF.WEB-DL.DDP5.1.x264_SkiesIT.mkv - 551.7 MB
    Dragon's.Dogma.2020.S01E03.1080p.NF.WEB-DL.DDP5.1.x264_SkiesIT.mkv - 545.0 MB
    Dragon's.Dogma.2020.S01E04.1080p.NF.WEB-DL.DDP5.1.x264_SkiesIT.mkv - 637.4 MB
    Dragon's.Dogma.2020.S01E05.1080p.NF.WEB-DL.DDP5.1.x264_SkiesIT.mkv - 609.3 MB
    Dragon's.Dogma.2020.S01E06.1080p.NF.WEB-DL.DDP5.1.x264_SkiesIT.mkv - 326.0 MB
    Dragon's.Dogma.2020.S01E07.1080p.NF.WEB-DL.DDP5.1.x264_SkiesIT.mkv - 722.0 MB

  2. The Following User Says Thank You to Duckload.us For This Useful Post:

    Wesker_TOT (09-19-2020)

  3. #2
    Senior Member
    สมัครเมื่อ
    Jul 2013
    โพสต์
    1,299
    Thanks
    0
    Thanked 0 Times in 0 Posts
    ขอบคุณครับ

  4. #3
    Senior Member
    สมัครเมื่อ
    Dec 2013
    โพสต์
    2,435
    Thanks
    4,360
    Thanked 0 Times in 0 Posts
    ขอบคุณนะครับ...

  5. #4
    Senior Member
    สมัครเมื่อ
    Oct 2013
    โพสต์
    1,767
    Thanks
    0
    Thanked 0 Times in 0 Posts
    ขอบคุณครับ

  6. #5
    Senior Member
    สมัครเมื่อ
    May 2012
    โพสต์
    683
    Thanks
    0
    Thanked 0 Times in 0 Posts
    ขอบคุณครับ

+ ตอบกลับกระทู้

ข้อมูลกระทู้

Users Browsing this Thread

ในขณะนี้มี 1 ท่านดูกระทู้อยู่. (0 สมาชิกและ 1 ผู้เยี่ยมชม)

     

กฎการโพสต์ข้อความ

  • ท่าน ไม่สามารถ ตั้งกระทู้ใหม่ได้
  • ท่าน ไม่สามารถ ตอบกระทู้ได้
  • ท่าน ไม่สามารถ แนบไฟล์ได้
  • ท่าน ไม่สามารถ แก้ไขข้อความโพสต์ได้
  • BB code สถานะ เปิด
  • Smilies สถานะ เปิด
  • [IMG] สถานะ เปิด
  • HTML สถานะ ปิด