+ ตอบกลับกระทู้
สรุปผลการค้นหา 1 ถึง 3 จากทั้งหมด 3
  1. #1
    Administrators รูปส่วนตัว Duckload.us
    สมัครเมื่อ
    Dec 2010
    โพสต์
    119,935
    Thanks
    7
    Thanked 125,352 Times in 56,072 Posts

    Thumbs up [ฝรั่ง]-[* ใหม่!! NETFLIX *] Ratched (2020) : แรทเช็ด: จิตอำมหิต - Season 1 [เสียงอังกฤษ 5.1 Atmos] [บรรยายไทย + อังกฤษ] [ซับไทย Master From Netflix + ซับ SRT , PGS]-WEB-DL.H.264.1080p. [Hi-def rip from Master]



    ‘แรทเช็ด: จิตอำมหิต (Ratched)’ ซีรีส์สุดระทึก พบกับพยาบาลแรทเช็ด ต้นกำเนิดตัวละครที่โคตรร้ายระดับตำนานของโลก นำแสดงโดย ‘ซาราห์ พอลสัน’ รับบท พยาบาลผู้เลือดเย็น ‘มิลเดร็ด’ จะเป็นยังไงถ้านางพยาบาลแปรเปลี่ยนมาเป็นปีศาจ?

    แรทเช็ด: จิตอำมหิต ผลงานถายใต้การดูแลของ Ryan Murphy ผู้สร้าง American Horror Story เตรียมเล่าความสยองใหม่ของ ตัวละครวายร้าย จากภาพยนตร์ในตำนาน 'One Flew Over the Cuckoo's Nest' (1975) ภาพยนตร์ยอดเยี่ยมรางวัลออสก้าร์ ที่เล่าถึงการเมืองภายในโรงพยาบาลบ้าแห่งหนึ่ง ที่มีฝ่ายหนึ่งเป็นหัวหน้าพยาบาลบ้าอำนาจ พยาบาลแรทเช็ด และอีกฝ่ายหนึ่งคือผู้ป่วยในวอร์ด เรื่องราวในฉบับซีรีส์จะพาย้อนไปจุดเริ่มต้น ที่ทำให้ แรทเช็ด นางพยาบาลที่ย้ายเข้ามาใหม่ ก้าวขึ้นสู่เส้นทางอำมหิต ภายใต้รอยยิ้มไมตรี และความสงบนิ่ง อาจเต็มไปด้วยโทสะอันโหดร้ายไร้ปราณี


    Format : Matroska
    Format version : Version 4
    File size : 2.20 GiB
    Duration : 56 min 55 s
    Overall bit rate mode : Variable
    Overall bit rate : 5 537 kb/s
    Movie name : Ratched.S01E01.Pilot.1080p.NF.WEB-DL.DDP5.1.Atmos.x264_SkiesIT
    Encoded date : UTC 2020-09-18 11:10:35
    Writing application : mkvmerge v49.0.0 ('Sick Of Losing Soulmates') 64-bit
    Writing library : libebml v1.4.0 + libmatroska v1.6.1

    Video
    ID : 1
    Format : AVC
    Format/Info : Advanced Video Codec
    Format profile : [email protected]
    Format settings : CABAC / 3 Ref Frames
    Format settings, CABAC : Yes
    Format settings, Reference frames : 3 frames
    Codec ID : V_MPEG4/ISO/AVC
    Duration : 56 min 55 s
    Bit rate mode : Variable
    Bit rate : 4 870 kb/s
    Maximum bit rate : 7 305 kb/s
    Width : 1 920 pixels
    Height : 1 080 pixels
    Display aspect ratio : 16:9
    Frame rate mode : Constant
    Frame rate : 23.976 (24000/1001) FPS
    Color space : YUV
    Chroma subsampling : 4:2:0
    Bit depth : 8 bits
    Scan type : Progressive
    Bits/(Pixel*Frame) : 0.098
    Stream size : 1.86 GiB (85%)
    Title : Ratched.S01E01.Pilot.1080p.NF.WEB-DL.DDP5.1.Atmos.x264_SkiesIT
    Writing library : x264 core 148 r2722 1b0121b
    Encoding settings : cabac=1 / ref=3 / deblock=1:0:0 / analyse=0x1:0x111 / me=umh / subme=10 / psy=1 / psy_rd=1.00:0.00 / mixed_ref=1 / me_range=24 / chroma_me=1 / trellis=2 / 8x8dct=0 / cqm=0 / deadzone=21,11 / fast_pskip=1 / chroma_qp_offset=-2 / threads=8 / lookahead_threads=1 / sliced_threads=0 / nr=0 / decimate=1 / interlaced=0 / bluray_compat=0 / stitchable=1 / constrained_intra=0 / bframes=2 / b_pyramid=0 / b_adapt=2 / b_bias=0 / direct=3 / weightb=1 / open_gop=0 / weightp=2 / keyint=250 / keyint_min=23 / scenecut=0 / intra_refresh=0 / rc_lookahead=48 / rc=2pass / mbtree=1 / bitrate=4870 / ratetol=1.0 / qcomp=0.50 / qpmin=6 / qpmax=51 / qpstep=4 / cplxblur=20.0 / qblur=0.5 / vbv_maxrate=7305 / vbv_bufsize=9740 / nal_hrd=vbr / filler=0 / ip_ratio=1.40 / aq=1:1.00
    Language : English
    Default : Yes
    Forced : No

    Audio
    ID : 2
    Format : E-AC-3 JOC
    Format/Info : Enhanced AC-3 with Joint Object Coding
    Commercial name : Dolby Digital Plus with Dolby Atmos
    Codec ID : A_EAC3
    Duration : 56 min 55 s
    Bit rate mode : Constant
    Bit rate : 768 kb/s
    Channel(s) : 6 channels
    Channel layout : L R C LFE Ls Rs
    Sampling rate : 48.0 kHz
    Frame rate : 31.250 FPS (1536 SPF)
    Compression mode : Lossy
    Stream size : 313 MiB (14%)
    Language : English
    Service kind : Complete Main
    Default : Yes
    Forced : No
    Complexity index : 16
    Number of dynamic objects : 15
    Bed channel count : 1 channel
    Bed channel configuration : LFE

    Text #1
    ID : 3
    Format : UTF-8
    Codec ID : S_TEXT/UTF8
    Codec ID/Info : UTF-8 Plain Text
    Duration : 55 min 30 s
    Bit rate : 131 b/s
    Count of elements : 631
    Stream size : 53.3 KiB (0%)
    Title : Thai SRT From Netflix
    Language : Thai
    Default : Yes
    Forced : No

    Text #2
    ID : 4
    Format : UTF-8
    Codec ID : S_TEXT/UTF8
    Codec ID/Info : UTF-8 Plain Text
    Duration : 54 min 14 s
    Bit rate : 57 b/s
    Count of elements : 693
    Stream size : 22.8 KiB (0%)
    Title : English SRT
    Language : English
    Default : No
    Forced : No

    Text #3
    ID : 5
    Format : PGS
    Muxing mode : zlib
    Codec ID : S_HDMV/PGS
    Codec ID/Info : Picture based subtitle format used on BDs/HD-DVDs
    Duration : 55 min 30 s
    Bit rate : 39.8 kb/s
    Count of elements : 1262
    Stream size : 15.8 MiB (1%)
    Title : Thai PGS [Angsana]
    Language : Thai
    Default : No
    Forced : No

    Text #4
    ID : 6
    Format : PGS
    Muxing mode : zlib
    Codec ID : S_HDMV/PGS
    Codec ID/Info : Picture based subtitle format used on BDs/HD-DVDs
    Duration : 55 min 30 s
    Bit rate : 39.8 kb/s
    Count of elements : 1262
    Stream size : 15.8 MiB (1%)
    Title : Thai PGS [Angsana Yellow]
    Language : Thai
    Default : No
    Forced : No

    Text #5
    ID : 7
    Format : PGS
    Muxing mode : zlib
    Codec ID : S_HDMV/PGS
    Codec ID/Info : Picture based subtitle format used on BDs/HD-DVDs
    Duration : 55 min 30 s
    Bit rate : 39.3 kb/s
    Count of elements : 1262
    Stream size : 15.6 MiB (1%)
    Title : Thai PGS [Sarabun]
    Language : Thai
    Default : No
    Forced : No

    Text #6
    ID : 8
    Format : PGS
    Muxing mode : zlib
    Codec ID : S_HDMV/PGS
    Codec ID/Info : Picture based subtitle format used on BDs/HD-DVDs
    Duration : 55 min 30 s
    Bit rate : 39.3 kb/s
    Count of elements : 1262
    Stream size : 15.6 MiB (1%)
    Title : Thai PGS [Sarabun Yellow]
    Language : Thai
    Default : No
    Forced : No

    Text #7
    ID : 9
    Format : PGS
    Muxing mode : zlib
    Codec ID : S_HDMV/PGS
    Codec ID/Info : Picture based subtitle format used on BDs/HD-DVDs
    Duration : 54 min 14 s
    Bit rate : 35.4 kb/s
    Count of elements : 1386
    Stream size : 13.8 MiB (1%)
    Title : English PGS
    Language : English
    Default : No
    Forced : No











    Download: filecondo
    1 http://www.filecondo.com/dl.php?f=ib2b151KjzK5
    2 http://www.filecondo.com/dl.php?f=p7cf071KjzL4
    3 http://www.filecondo.com/dl.php?f=Xc33c71KjzM0
    4 http://www.filecondo.com/dl.php?f=W326b31KjzMU
    5 http://www.filecondo.com/dl.php?f=i9a08f1KjzNV
    6 http://www.filecondo.com/dl.php?f=3f8bd31KjzOO
    7 http://www.filecondo.com/dl.php?f=2811551KjzPQ
    8 http://www.filecondo.com/dl.php?f=de8bc71KjzQQ

    Download: cornfile
    Ratched.S01E01.Pilot.1080p.NF.WEB-DL.DDP5.1.Atmos.x264_SkiesIT.mkv - 2.2 GB
    Ratched.S01E02.Ice.Pick.1080p.NF.WEB-DL.DDP5.1.Atmos.x264_SkiesIT.mkv - 2.0 GB
    Ratched.S01E03.Angel.of.Mercy.1080p.NF.WEB-DL.DDP5.1.Atmos.x264_SkiesIT.mkv - 1.7 GB
    Ratched.S01E04.Angel.of.Mercy.Part.Two.1080p.NF.WE B-DL.DDP5.1.Atmos.x264_SkiesIT.mkv - 1.6 GB
    Ratched.S01E05.The.Dance.1080p.NF.WEB-DL.DDP5.1.Atmos.x264_SkiesIT.mkv - 2.2 GB
    Ratched.S01E06.Got.No.Strings.1080p.NF.WEB-DL.DDP5.1.Atmos.x264_SkiesIT.mkv - 1.4 GB
    Ratched.S01E07.The.Bucket.List.1080p.NF.WEB-DL.DDP5.1.Atmos.x264_SkiesIT.mkv - 1.6 GB
    Ratched.S01E08.Mildred.and.Edmund.1080p.NF.WEB-DL.DDP5.1.Atmos.x264_SkiesIT.mkv - 2.0 GB

  2. #2
    Senior Member
    สมัครเมื่อ
    Jul 2013
    โพสต์
    1,299
    Thanks
    0
    Thanked 0 Times in 0 Posts
    ขอบคุณครับ

  3. #3
    Senior Member
    สมัครเมื่อ
    Jul 2012
    โพสต์
    7,131
    Thanks
    0
    Thanked 0 Times in 0 Posts
    ขอบคุณมากจ้า

+ ตอบกลับกระทู้

ข้อมูลกระทู้

Users Browsing this Thread

ในขณะนี้มี 1 ท่านดูกระทู้อยู่. (0 สมาชิกและ 1 ผู้เยี่ยมชม)

     

กฎการโพสต์ข้อความ

  • ท่าน ไม่สามารถ ตั้งกระทู้ใหม่ได้
  • ท่าน ไม่สามารถ ตอบกระทู้ได้
  • ท่าน ไม่สามารถ แนบไฟล์ได้
  • ท่าน ไม่สามารถ แก้ไขข้อความโพสต์ได้
  • BB code สถานะ เปิด
  • Smilies สถานะ เปิด
  • [IMG] สถานะ เปิด
  • HTML สถานะ ปิด