+ ตอบกลับกระทู้
สรุปผลการค้นหา 1 ถึง 3 จากทั้งหมด 3
  1. #1
    Administrators รูปส่วนตัว Duckload.us
    สมัครเมื่อ
    Dec 2010
    โพสต์
    119,935
    Thanks
    7
    Thanked 125,353 Times in 56,072 Posts

    Thumbs up [ฝรั่ง]-Killing Eve Season 1 : พลิกเกมล่า แก้วตาทรชน ปี 1-Blu-ray.DTS.1080p. [Hi-def rip from Master]-[พากย์ไทยAC3-พากย์อังกฤษDTS-บรรยายอังกฤษ]








    อีฟ โปลาสตรี เจ้าหน้าที่หน่วย MI6 จับพลัดจับผูลได้เป็นสายลับที่ได้รับมอบหมายให้ไล่ล่ า วิลาเนลล์ นักฆ่ามือพระกาฬที่หาตัวจับได้ยาก ความเฉลียวฉลาดของเธอทำให้เจาะข้อมูลเบื้องหลังของวิ ลาเนลล์ได้อย่างเหลือเชื่อ แต่ยิ่งล้วงลึก ยิ่งทำให้เธอตกเป็นเป้าสังหารเสียเอง


    Format : Matroska
    Format version : Version 4 / Version 2
    File size : 3.41 GiB
    Duration : 42 min 34 s
    Overall bit rate : 11.5 Mb/s
    Writing application : mkvmerge v48.0.0 ('Fortress Around Your Heart') 64-bit
    Writing library : libebml v1.4.0 + libmatroska v1.6.0

    Video
    ID : 1
    Format : AVC
    Format/Info : Advanced Video Codec
    Format profile : [email protected]
    Format settings, CABAC : Yes
    Format settings, ReFrames : 4 frames
    Codec ID : V_MPEG4/ISO/AVC
    Duration : 42 min 34 s
    Bit rate : 9 505 kb/s
    Width : 1 920 pixels
    Height : 1 080 pixels
    Display aspect ratio : 16:9
    Frame rate mode : Constant
    Frame rate : 23.976 (24000/1001) FPS
    Color space : YUV
    Chroma subsampling : 4:2:0
    Bit depth : 8 bits
    Scan type : Progressive
    Bits/(Pixel*Frame) : 0.191
    Default : Yes
    Forced : No

    Audio #1
    ID : 2
    Format : AC-3
    Format/Info : Audio Coding 3
    Mode extension : CM (complete main)
    Format settings, Endianness : Big
    Codec ID : A_AC3
    Duration : 42 min 34 s
    Bit rate mode : Constant
    Bit rate : 448 kb/s
    Channel(s) : 2 channels
    Channel positions : Front: L R
    Sampling rate : 48.0 kHz
    Frame rate : 31.250 FPS (1536 spf)
    Compression mode : Lossy
    Stream size : 136 MiB (4%)
    Language : Thai
    Default : Yes
    Forced : No

    Audio #2
    ID : 3
    Format : DTS
    Format/Info : Digital Theater Systems
    Mode : 16
    Format settings, Endianness : Big
    Codec ID : A_DTS
    Duration : 42 min 34 s
    Bit rate mode : Constant
    Bit rate : 1 509 kb/s
    Channel(s) : 6 channels
    Channel positions : Front: L C R, Side: L R, LFE
    Sampling rate : 48.0 kHz
    Frame rate : 93.750 FPS (512 spf)
    Bit depth : 24 bits
    Compression mode : Lossy
    Stream size : 460 MiB (13%)
    Language : English
    Default : No
    Forced : No

    Text #1
    ID : 4
    Format : VobSub
    Muxing mode : zlib
    Codec ID : S_VOBSUB
    Codec ID/Info : Picture based subtitle format used on DVDs
    Duration : 42 min 2 s
    Bit rate : 10.7 kb/s
    Count of elements : 674
    Stream size : 3.22 MiB (0%)
    Language : English
    Default : Yes
    Forced : No

    Text #2
    ID : 5
    Format : UTF-8
    Codec ID : S_TEXT/UTF8
    Codec ID/Info : UTF-8 Plain Text
    Duration : 41 min 59 s
    Bit rate : 56 b/s
    Count of elements : 600
    Stream size : 17.3 KiB (0%)
    Language : English
    Default : No
    Forced : No

    Text #3
    ID : 6
    Format : UTF-8
    Codec ID : S_TEXT/UTF8
    Codec ID/Info : UTF-8 Plain Text
    Duration : 42 min 2 s
    Bit rate : 60 b/s
    Count of elements : 674
    Stream size : 18.8 KiB (0%)
    Title : SDH
    Language : English
    Default : No
    Forced : No












    Download: filecondo
    1 http://www.filecondo.com/dl.php?f=da316c1Kjxse
    2 http://www.filecondo.com/dl.php?f=xd5ef51Kjxtc
    3 http://www.filecondo.com/dl.php?f=B7e3f81Kjxv8
    4 http://www.filecondo.com/dl.php?f=w674791Kjxx4
    5 http://www.filecondo.com/dl.php?f=J097251Kjxy3
    6 http://www.filecondo.com/dl.php?f=xe50aa1KjxzZ
    7 http://www.filecondo.com/dl.php?f=Ra91e91KjxCT
    8 http://www.filecondo.com/dl.php?f=c00aae1KjxDR

    Download: cornfile
    Killing.Eve.S01E01.Nice.Face.1080p.BluRay.x264.DTS-Ferdi125.mkv - 3.4 GB
    Killing.Eve.S01E02.I'll.Deal.With.Him.Later.1080p. BluRay.x264.DTS-Ferdi125.mkv - 3.4 GB
    Killing.Eve.S01E03.Don't.I.Know.You.1080p.BluRay.x 264.DTS-Ferdi125.mkv - 3.4 GB
    Killing.Eve.S01E04.Sorry.Baby.1080p.BluRay.x264.DT S-Ferdi125.mkv - 3.4 GB
    Killing.Eve.S01E05.I.Have.a.Thing.About.Bathrooms. 1080p.BluRay.x264.DTS-Ferdi125.mkv - 3.4 GB
    Killing.Eve.S01E06.Take.Me.to.the.Hole!.1080p.BluR ay.x264.DTS-Ferdi125.mkv - 3.4 GB
    Killing.Eve.S01E07.I.Don't.Want.To.Be.Free.1080p.B luRay.x264.DTS-Ferdi125.mkv - 3.4 GB
    Killing.Eve.S01E08.God,.I'm.Tired.1080p.BluRay.x26 4.DTS-Ferdi125.mkv - 3.4 GB

  2. #2
    Senior Member
    สมัครเมื่อ
    Jul 2013
    โพสต์
    1,299
    Thanks
    0
    Thanked 0 Times in 0 Posts
    ขอบคุณครับผม มีซีรี่ย์นอนดูยาวๆ

  3. #3
    Senior Member
    สมัครเมื่อ
    Jul 2012
    โพสต์
    7,131
    Thanks
    0
    Thanked 0 Times in 0 Posts
    ขอบคุณมากจ้า

+ ตอบกลับกระทู้

ข้อมูลกระทู้

Users Browsing this Thread

ในขณะนี้มี 1 ท่านดูกระทู้อยู่. (0 สมาชิกและ 1 ผู้เยี่ยมชม)

     

กฎการโพสต์ข้อความ

  • ท่าน ไม่สามารถ ตั้งกระทู้ใหม่ได้
  • ท่าน ไม่สามารถ ตอบกระทู้ได้
  • ท่าน ไม่สามารถ แนบไฟล์ได้
  • ท่าน ไม่สามารถ แก้ไขข้อความโพสต์ได้
  • BB code สถานะ เปิด
  • Smilies สถานะ เปิด
  • [IMG] สถานะ เปิด
  • HTML สถานะ ปิด