+ ตอบกลับกระทู้
สรุปผลการค้นหา 1 ถึง 2 จากทั้งหมด 2
  1. #1
    Administrators รูปส่วนตัว Duckload.us
    สมัครเมื่อ
    Dec 2010
    โพสต์
    119,824
    Thanks
    7
    Thanked 125,278 Times in 56,033 Posts

    Lightbulb [ฝรั่ง]-City on a Hill Season 1 : คู่เดือดล้างเมืองบาป ปี 1-WEB-DL.H.264.1080p. [Hi-def rip from Master]-[พากย์ไทยAC3-พากย์อังกฤษDDP5.1-บรรยายอังกฤษ]
















    PLOT




    เมืองบอสตัน ต้นทศวรรษที่ 90 มีการเหยียดผิว อาชญากรรม การใช้อำนาจบาตรใหญ่ของตำรวจ และระบบยุติธรรมที่ล้มเหลว “ดีคอร์ซี่ วอร์ด” ผู้ช่วยอัยการที่มีอุดมการณ์ เขาต้องการที่จะถอนรากถอนโคนล้มล้างระบบยุติธรรมที่ฟ อนแฟะ และเอาผิดตำรวจที่กระทำผิด จึงทำให้เหล่าตำรวจเกลียดขี้หน้า เขาจึงแสวงหาความร่วมมือกับ “แจ็คกี้ โรห์” เอฟบีไอมือดี แต่ก็มีความด่างพร้อย และทำงานแบบไม่ขาวสะอาด ถึงแม้ว่าทั้งคู่จะไม่ถูกกัน และเรื่องราวที่เขาปกปิดไว้อาจย้อนกลับมาทำร้ายพวกเข า แต่เพื่อเริ่มต้นการชำระล้างเมืองนี้ เขาจึงต้องร่วมมือกัน














    Format : Matroska
    Format version : Version 4 / Version 2
    File size : 4.01 GiB
    Duration : 54 min 42 s
    Overall bit rate : 10.5 Mb/s
    Writing application : mkvmerge v48.0.0 ('Fortress Around Your Heart') 64-bit
    Writing library : libebml v1.4.0 + libmatroska v1.6.0

    Video
    ID : 1
    Format : AVC
    Format/Info : Advanced Video Codec
    Format profile : [email protected]
    Format settings, CABAC : Yes
    Format settings, ReFrames : 4 frames
    Codec ID : V_MPEG4/ISO/AVC
    Duration : 54 min 41 s
    Bit rate mode : Constant
    Bit rate : 9 397 kb/s
    Nominal bit rate : 10 000 kb/s
    Width : 1 920 pixels
    Height : 1 080 pixels
    Display aspect ratio : 16:9
    Frame rate mode : Constant
    Frame rate : 23.976 (24000/1001) FPS
    Color space : YUV
    Chroma subsampling : 4:2:0
    Bit depth : 8 bits
    Scan type : Progressive
    Bits/(Pixel*Frame) : 0.189
    Stream size : 3.59 GiB (90%)
    Default : Yes
    Forced : No
    Color range : Limited
    Color primaries : BT.709
    Transfer characteristics : BT.709
    Matrix coefficients : BT.709

    Audio #1
    ID : 2
    Format : AC-3
    Format/Info : Audio Coding 3
    Mode extension : CM (complete main)
    Format settings, Endianness : Big
    Codec ID : A_AC3
    Duration : 54 min 41 s
    Bit rate mode : Constant
    Bit rate : 448 kb/s
    Channel(s) : 2 channels
    Channel positions : Front: L R
    Sampling rate : 44.1 kHz
    Frame rate : 28.711 FPS (1536 spf)
    Compression mode : Lossy
    Stream size : 175 MiB (4%)
    Language : Thai
    Default : Yes
    Forced : No

    Audio #2
    ID : 3
    Format : E-AC-3
    Format/Info : Audio Coding 3
    Format settings, Endianness : Big
    Codec ID : A_EAC3
    Duration : 54 min 41 s
    Bit rate mode : Constant
    Bit rate : 640 kb/s
    Channel(s) : 6 channels
    Channel positions : Front: L C R, Side: L R, LFE
    Sampling rate : 48.0 kHz
    Frame rate : 187.500 FPS (256 spf)
    Compression mode : Lossy
    Delay relative to video : 18 ms
    Stream size : 250 MiB (6%)
    Language : English
    Default : No
    Forced : No

    Text
    ID : 4
    Format : UTF-8
    Codec ID : S_TEXT/UTF8
    Codec ID/Info : UTF-8 Plain Text
    Duration : 54 min 27 s
    Bit rate : 80 b/s
    Count of elements : 982
    Stream size : 32.1 KiB (0%)
    Title : SDH
    Language : English
    Default : No
    Forced : No





    1
    http://www.filecondo.com/dl.php?f=E482701KkdjF
    2
    http://www.filecondo.com/dl.php?f=D9ac961KkdlH
    3
    http://www.filecondo.com/dl.php?f=T7d3331KkdnD
    4
    http://www.filecondo.com/dl.php?f=za9ca71Kkdpw
    5
    http://www.filecondo.com/dl.php?f=Afaba01Kkdrr
    6
    http://www.filecondo.com/dl.php?f=Da1b5e1Kkdtb
    7
    http://www.filecondo.com/dl.php?f=B240dc1Kkduc
    8
    http://www.filecondo.com/dl.php?f=O852911Kkdw6
    9
    http://www.filecondo.com/dl.php?f=ofc4cb1Kkdx3
    10
    http://www.filecondo.com/dl.php?f=71f1cc1Kkdy0

  2. #2
    Senior Member
    สมัครเมื่อ
    Jul 2012
    โพสต์
    7,124
    Thanks
    0
    Thanked 0 Times in 0 Posts
    ขอบคุณมากจ้า

+ ตอบกลับกระทู้

ข้อมูลกระทู้

Users Browsing this Thread

ในขณะนี้มี 1 ท่านดูกระทู้อยู่. (0 สมาชิกและ 1 ผู้เยี่ยมชม)

     

กฎการโพสต์ข้อความ

  • ท่าน ไม่สามารถ ตั้งกระทู้ใหม่ได้
  • ท่าน ไม่สามารถ ตอบกระทู้ได้
  • ท่าน ไม่สามารถ แนบไฟล์ได้
  • ท่าน ไม่สามารถ แก้ไขข้อความโพสต์ได้
  • BB code สถานะ เปิด
  • Smilies สถานะ เปิด
  • [IMG] สถานะ เปิด
  • HTML สถานะ ปิด