+ ตอบกลับกระทู้
สรุปผลการค้นหา 1 ถึง 4 จากทั้งหมด 4
  1. #1
    Administrators รูปส่วนตัว Duckload.us
    สมัครเมื่อ
    Dec 2010
    โพสต์
    119,935
    Thanks
    7
    Thanked 125,353 Times in 56,072 Posts

    Angry [ฝรั่ง]-32 Malasana Street (2020) 32 มาลาซานญ่า ย่านผีอยู่-WEB-DL.H.264.1080p. [Master]-[พากย์ไทยมาสเตอร์ 2.0]



    เรื่องย่อ: จะเกิดอะไรขึ้นถ้าหากสิ่งที่น่ากลัวที่สุดเท่าที่คุณ จินตนาการออกแฝงตัวอยู่ใต้ชายคาบ้านคุณเอง สร้างจากเหตุการณ์จริงที่เคยเกิดขึ้น Malasana 32 เป็นภาพยนตร์สยองขวัญเกี่ยวกับสิ่งลี้ลับเหนือธรรมชา ติ เป็นอีกหนึ่งผลงานที่พิสูจน์ว่านักทำหนังจากสเปนเป็น ตัวจริงเรื่องความหลอนเรื่องราวเกิดขึ้นในปี 1976 เมื่อครอบครัวหนึ่งอัลเมโด้ย้าย จากบ้านหลังเก่าย่านชนบทเข้ามายังบ้านใหม่ในย่านมาลา ซาน่า กรุงมาดริด พวกเขาทุกคนตื่นเต้นที่ได้เข้ามาใช้ชีวิตในเมืองหลวง กลางช่วงเปลี่ยนผ่านสำคัญของประเทศสเปน แต่มีสิ่งที่พวกเขายังไม่รู้ บ้านหลังนี้มีบางอย่างแถมมาด้วยซึ่งมันไม่ต้อนรับผู้ มาเยือนหน้าไหนทั้งนั้น ซึ่งมันพร้อมเปลี่ยนการเริ่มต้นครั้งใหม่เป็นฝันร้าย ที่ไม่มีทางลบเลือน... หมวดหมู่ : สยองขวัญ ผู้กำกับ : อัลแบรต์ ปินโต นักแสดง : เบโกญา วาร์กัส, อีบัน มาร์กอส, บี เซกูรา, เซร์คีโอ แคสเทลา...

    Format : Matroska
    Format version : Version 2
    File size : 4.92 GiB
    Duration : 1 h 44 min
    Overall bit rate mode : Constant
    Overall bit rate : 6 741 kb/s
    Movie name : 32 Malasana Street (2020) 32 มาลาซานญ่า ย่านผีอยู่.trim01
    Encoded date : UTC 2020-09-22 03:51:38
    Writing application : DVDFab 11.0.3.1
    Writing library : libebml v1.3.4 + libmatroska v1.4.5

    Video
    ID : 1
    Format : AVC
    Format/Info : Advanced Video Codec
    Format profile : [email protected]
    Format settings : CABAC / 4 Ref Frames
    Format settings, CABAC : Yes
    Format settings, Reference frames : 4 frames
    Format settings, GOP : M=3, N=24
    Codec ID : V_MPEG4/ISO/AVC
    Duration : 1 h 44 min
    Bit rate mode : Constant
    Bit rate : 6 712 kb/s
    Width : 2 592 pixels
    Height : 1 080 pixels
    Display aspect ratio : 2.40:1
    Frame rate mode : Constant
    Frame rate : 23.976 (24000/1001) FPS
    Color space : YUV
    Chroma subsampling : 4:2:0
    Bit depth : 8 bits
    Scan type : Progressive
    Bits/(Pixel*Frame) : 0.100
    Stream size : 4.78 GiB (97%)
    Default : Yes
    Forced : No
    Color range : Limited
    Color primaries : BT.709
    Transfer characteristics : BT.709
    Matrix coefficients : BT.709

    Audio
    ID : 2
    Format : AC-3
    Format/Info : Audio Coding 3
    Commercial name : Dolby Digital
    Codec ID : A_AC3
    Duration : 1 h 44 min
    Bit rate mode : Constant
    Bit rate : 192 kb/s
    Channel(s) : 2 channels
    Channel layout : L R
    Sampling rate : 48.0 kHz
    Frame rate : 31.250 FPS (1536 SPF)
    Compression mode : Lossy
    Stream size : 143 MiB (3%)
    Service kind : Complete Main
    Default : Yes
    Forced : No





    http://cornfile.com/nlz84mjt1zkf

  2. The Following 3 Users Say Thank You to Duckload.us For This Useful Post:

    bigbang06 (09-23-2020), sawara (09-26-2020), Wesker_TOT (09-23-2020)

  3. #2
    Senior Member
    สมัครเมื่อ
    Jul 2013
    โพสต์
    1,299
    Thanks
    0
    Thanked 0 Times in 0 Posts
    ขอบคุณครับผม

  4. #3
    Senior Member
    สมัครเมื่อ
    Dec 2013
    โพสต์
    2,435
    Thanks
    4,360
    Thanked 0 Times in 0 Posts
    ขอบคุณนะครับ...

  5. #4
    Senior Member
    สมัครเมื่อ
    Dec 2013
    โพสต์
    327
    Thanks
    245
    Thanked 0 Times in 0 Posts
    ขอบคุณครับ

+ ตอบกลับกระทู้

ข้อมูลกระทู้

Users Browsing this Thread

ในขณะนี้มี 1 ท่านดูกระทู้อยู่. (0 สมาชิกและ 1 ผู้เยี่ยมชม)

     

กฎการโพสต์ข้อความ

  • ท่าน ไม่สามารถ ตั้งกระทู้ใหม่ได้
  • ท่าน ไม่สามารถ ตอบกระทู้ได้
  • ท่าน ไม่สามารถ แนบไฟล์ได้
  • ท่าน ไม่สามารถ แก้ไขข้อความโพสต์ได้
  • BB code สถานะ เปิด
  • Smilies สถานะ เปิด
  • [IMG] สถานะ เปิด
  • HTML สถานะ ปิด