+ ตอบกลับกระทู้
สรุปผลการค้นหา 1 ถึง 4 จากทั้งหมด 4
  1. #1
    Administrators รูปส่วนตัว Duckload.us
    สมัครเมื่อ
    Dec 2010
    โพสต์
    123,776
    Thanks
    7
    Thanked 128,790 Times in 57,297 Posts

    Lightbulb [ญี่ปุ่น]-[ใหม่! สดๆ ร้อนๆ *เสียงไทย ซับไทยครบ*] Kimetsu no Yaiba (Demon Slayer) ดาบพิฆาตอสูร : เรื่องราวของคามาโดะ ทันจิโร่ [พากย์ไทย+ญี่ปุ่น+อังกฤษ] [พร้อมซับไทยและซับภาษาอื่นๆ]-Encode.H.265.1080p. [rip from Master]-[พากย์ไทย บรรยายไทย]



    เรื่องราวในยุคไทโช (1912-1926) ทันจิโร่เด็กหนุ่มขายถ่านที่แสนอ่อนโยน วันหนึ่งครอบครัวของเขาถูกอสูรฆ่าตาย

    ส่วนเนซึโกะ น้องสาวของเขาก็โดนเปลี่ยนเป็นอสูร ในตอนนั้นเองนักล่าอสูรนามว่า โทมิโอกะ งิยู ก็ได้ปรากฏตัวขึ้นและคิดจะกำจัดเนซึโกะ

    ทว่าเขาก็ต้องประหลาดใจที่เนซึโกะกับทันจิโร่กลับปกป ้องกันและกัน ยิ่งได้เห็นฝีมือการต่อสู้ของทันจิโร่ทำให้ งิยูตัดสินใจส่งตัวพวกเขาไปให้สหายเก่าแก่ของตนเองช่ วยฝึกฝนให้

    นั่นจึงเป็นจุดเริ่มต้นการเป็นนักล่าอสูรของทันจิโร่ เพื่อช่วยน้องสาวให้กลับมาเป็นมนุษย์อีกครั้งและเพื่ อตามล่าอสูรที่ฆ่าครอบครัวของเขา..

    Code:
    General
    Complete name               : Demon Slayer - 01.mkv
    Format                      : Matroska
    Format version              : Version 4
    File size                   : 584 MiB
    Duration                    : 23 min 41 s
    Overall bit rate            : 3 448 kb/s
    
    Video
    ID                          : 1
    Format                      : HEVC
    Format/Info                 : High Efficiency Video Coding
    Format profile              : Main [email protected]@Main
    Codec ID                    : V_MPEGH/ISO/HEVC
    Duration                    : 23 min 41 s
    Bit rate                    : 3 006 kb/s
    Width                       : 1 920 pixels
    Height                      : 1 080 pixels
    Display aspect ratio        : 16:9
    Frame rate mode             : Constant
    Frame rate                  : 23.976 (24000/1001) FPS
    Color space                 : YUV
    Chroma subsampling          : 4:2:0
    Bit depth                   : 10 bits
    Bits/(Pixel*Frame)          : 0.060
    Stream size                 : 509 MiB (87%)
    Title                       : [Judas] x265 10b
    Writing library             : x265 3.2+35-acc5d16999e2:[Windows][GCC 9.2.1][64 bit] 10bit
    Encoding settings           : cpuid=1111039 / frame-threads=1 / numa-pools=20,- / wpp / no-pmode / no-pme / no-psnr / no-ssim / log-level=0 / input-csp=1 / input-res=1920x1080 / interlace=0 / total-frames=0 / level-idc=0 / high-tier=1 / uhd-bd=0 / ref=6 / no-allow-non-conformance / no-repeat-headers / annexb / no-aud / no-hrd / info / hash=0 / no-temporal-layers / open-gop / min-keyint=24 / keyint=250 / gop-lookahead=0 / bframes=16 / b-adapt=2 / b-pyramid / bframe-bias=0 / rc-lookahead=250 / lookahead-slices=4 / scenecut=40 / hist-scenecut=0 / radl=0 / no-splice / no-intra-refresh / ctu=64 / min-cu-size=8 / rect / no-amp / max-tu-size=32 / tu-inter-depth=1 / tu-intra-depth=1 / limit-tu=0 / rdoq-level=2 / dynamic-rd=0.00 / no-ssim-rd / signh-i-d-e / no-tskip / nr-intra=0 / nr-inter=0 / no-constrained-intra / strong-intra-smoothing / max-merge=5 / limit-refs=1 / no-limit-modes / me=3 / subme=5 / merange=57 / temporal-mvp / no-frame-dup / no-hme / weightp / weightb / no-analyze-src-pics / deblock=-1:-1 / sao / no-sao-non-deblock / rd=4 / selective-sao=4 / no-early-skip / no-rskip / no-fast-intra / no-tskip-fast / no-cu-lossless / b-intra / no-splitrd-skip / rdpenalty=0 / psy-rd=1.50 / psy-rdoq=2.00 / no-rd-refine / no-lossless / cbqpoffs=0 / crqpoffs=0 / rc=crf / crf=21.5 / qcomp=0.60 / qpstep=4 / stats-write=0 / stats-read=0 / ipratio=1.40 / pbratio=1.30 / aq-mode=3 / aq-strength=0.85 / cutree / zone-count=0 / no-strict-cbr / qg-size=32 / no-rc-grain / qpmax=69 / qpmin=0 / no-const-vbv / sar=1 / overscan=0 / videoformat=5 / range=0 / colorprim=2 / transfer=2 / colormatrix=2 / chromaloc=0 / display-window=0 / cll=0,0 / min-luma=0 / max-luma=1023 / log2-max-poc-lsb=8 / vui-timing-info / vui-hrd-info / slices=1 / no-opt-qp-pps / no-opt-ref-list-length-pps / no-multi-pass-opt-rps / scenecut-bias=0.05 / hist-threshold=0.01 / no-opt-cu-delta-qp / no-aq-motion / no-hdr10 / no-hdr10-opt / no-dhdr10-opt / no-idr-recovery-sei / analysis-reuse-level=0 / analysis-save-reuse-level=0 / analysis-load-reuse-level=0 / scale-factor=0 / refine-intra=0 / refine-inter=0 / refine-mv=1 / refine-ctu-distortion=0 / limit-sao / ctu-info=0 / no-lowpass-dct / refine-analysis-type=0 / copy-pic=1 / max-ausize-factor=1.0 / no-dynamic-refine / no-single-sei / no-hevc-aq / no-svt / no-field / qp-adaptation-range=3.00 / no-scenecut-aware-qpconformance-window-offsets / right=0 / bottom=0
    Language                    : Japanese
    Default                     : Yes
    Forced                      : No
    Color range                 : Limited
    
    Audio #1
    ID                          : 2
    Format                      : AC-3
    Format/Info                 : Audio Coding 3
    Commercial name             : Dolby Digital
    Codec ID                    : A_AC3
    Duration                    : 23 min 41 s
    Bit rate mode               : Constant
    Bit rate                    : 192 kb/s
    Channel(s)                  : 2 channels
    Channel layout              : L R
    Sampling rate               : 48.0 kHz
    Frame rate                  : 31.250 FPS (1536 SPF)
    Compression mode            : Lossy
    Delay relative to video     : -7 ms
    Stream size                 : 32.5 MiB (6%)
    Language                    : Thai
    Service kind                : Complete Main
    Default                     : Yes
    Forced                      : No
    
    Audio #2
    ID                          : 3
    Format                      : Opus
    Codec ID                    : A_OPUS
    Duration                    : 23 min 41 s
    Bit rate                    : 104 kb/s
    Channel(s)                  : 2 channels
    Channel layout              : L R
    Sampling rate               : 48.0 kHz
    Frame rate                  : 50.000 FPS (960 SPF)
    Compression mode            : Lossy
    Delay relative to video     : -7 ms
    Stream size                 : 17.7 MiB (3%)
    Title                       : [Judas] JAP Stereo (Opus 112Kbps)
    Language                    : Japanese
    Default                     : No
    Forced                      : No
    
    Audio #3
    ID                          : 4
    Format                      : AAC LC
    Format/Info                 : Advanced Audio Codec Low Complexity
    Codec ID                    : A_AAC-2
    Duration                    : 23 min 39 s
    Bit rate                    : 138 kb/s
    Channel(s)                  : 2 channels
    Channel layout              : L R
    Sampling rate               : 48.0 kHz
    Frame rate                  : 46.875 FPS (1024 SPF)
    Compression mode            : Lossy
    Delay relative to video     : -7 ms
    Stream size                 : 23.4 MiB (4%)
    Title                       : [Judas] ENG Stereo (AAC)
    Language                    : English
    Default                     : No
    Forced                      : No
    
    Text #1
    ID                          : 5
    Format                      : UTF-8
    Codec ID                    : S_TEXT/UTF8
    Codec ID/Info               : UTF-8 Plain Text
    Duration                    : 20 min 44 s
    Bit rate                    : 108 b/s
    Count of elements           : 299
    Stream size                 : 16.5 KiB (0%)
    Language                    : Thai
    Default                     : Yes
    Forced                      : No
    
    Text #2
    ID                          : 6
    Format                      : ASS
    Codec ID                    : S_TEXT/ASS
    Codec ID/Info               : Advanced Sub Station Alpha
    Duration                    : 22 min 14 s
    Bit rate                    : 1 361 b/s
    Count of elements           : 2446
    Compression mode            : Lossless
    Stream size                 : 222 KiB (0%)
    Title                       : English [Full]
    Language                    : English
    Default                     : No
    Forced                      : No
    
    Text #3
    ID                          : 7
    Format                      : ASS
    Codec ID                    : S_TEXT/ASS
    Codec ID/Info               : Advanced Sub Station Alpha
    Duration                    : 1 min 32 s
    Bit rate                    : 18.1 kb/s
    Count of elements           : 2147
    Compression mode            : Lossless
    Stream size                 : 205 KiB (0%)
    Title                       : English [Signs/Songs]
    Language                    : Japanese
    Default                     : No
    Forced                      : No
    
    Text #4
    ID                          : 8
    Format                      : ASS
    Codec ID                    : S_TEXT/ASS
    Codec ID/Info               : Advanced Sub Station Alpha
    Duration                    : 20 min 45 s
    Bit rate                    : 126 b/s
    Count of elements           : 314
    Compression mode            : Lossless
    Stream size                 : 19.3 KiB (0%)
    Title                       : French
    Language                    : French
    Default                     : No
    Forced                      : No
    
    Text #5
    ID                          : 9
    Format                      : ASS
    Codec ID                    : S_TEXT/ASS
    Codec ID/Info               : Advanced Sub Station Alpha
    Duration                    : 20 min 44 s
    Bit rate                    : 115 b/s
    Count of elements           : 295
    Compression mode            : Lossless
    Stream size                 : 17.6 KiB (0%)
    Title                       : Spanish
    Language                    : Spanish
    Default                     : No
    Forced                      : No
    
    Text #6
    ID                          : 10
    Format                      : ASS
    Codec ID                    : S_TEXT/ASS
    Codec ID/Info               : Advanced Sub Station Alpha
    Duration                    : 20 min 44 s
    Bit rate                    : 130 b/s
    Count of elements           : 304
    Compression mode            : Lossless
    Stream size                 : 19.8 KiB (0%)
    Title                       : Brazilian Portuguese
    Language                    : Portuguese
    Default                     : No
    Forced                      : No
    
    Text #7
    ID                          : 11
    Format                      : ASS
    Codec ID                    : S_TEXT/ASS
    Codec ID/Info               : Advanced Sub Station Alpha
    Duration                    : 22 min 22 s
    Bit rate                    : 145 b/s
    Count of elements           : 328
    Compression mode            : Lossless
    Stream size                 : 23.9 KiB (0%)
    Title                       : Arabic
    Language                    : Arabic
    Default                     : No
    Forced                      : No
    
    Menu
    00:00:00.000                : :Avant
    00:21:10.019                : :OP
    00:22:39.984                : :ED


    1
    http://www.filecondo.com/dl.php?f=v7b67d1KpMm2
    2
    http://www.filecondo.com/dl.php?f=R694991KpMmY
    3
    http://www.filecondo.com/dl.php?f=s403af1KpMnX
    4
    http://www.filecondo.com/dl.php?f=A340d41KpMoU
    5
    http://www.filecondo.com/dl.php?f=21f6381KpMpS
    6
    http://www.filecondo.com/dl.php?f=wc34161KpMqQ
    7
    http://www.filecondo.com/dl.php?f=ma2a6b1KpMrP
    8
    http://www.filecondo.com/dl.php?f=j4a8221KpMsO
    9
    http://www.filecondo.com/dl.php?f=l173011KpMtM
    10
    http://www.filecondo.com/dl.php?f=K248e81KpMuJ
    11
    http://www.filecondo.com/dl.php?f=g4f5911KpMvH
    12
    http://www.filecondo.com/dl.php?f=Q786ab1KpMwF
    13
    http://www.filecondo.com/dl.php?f=a263411KpMxD
    14
    http://www.filecondo.com/dl.php?f=49610c1KpMyB
    15
    http://www.filecondo.com/dl.php?f=p5f1371KpMzz
    16
    http://www.filecondo.com/dl.php?f=we6d4f1KpMAx
    17
    http://www.filecondo.com/dl.php?f=S08a691KpMBv
    18
    http://www.filecondo.com/dl.php?f=Sd734b1KpMCt
    19
    http://www.filecondo.com/dl.php?f=Xe64051KpMDr
    20
    http://www.filecondo.com/dl.php?f=117be81KpMEp
    21
    http://www.filecondo.com/dl.php?f=L5707e1KpMFm
    22
    http://www.filecondo.com/dl.php?f=R01d1a1KpMGk
    23
    http://www.filecondo.com/dl.php?f=e711091KpMHi
    24
    http://www.filecondo.com/dl.php?f=044b361KpMIh
    25
    http://www.filecondo.com/dl.php?f=ofa5d61KpMJk
    26
    http://www.filecondo.com/dl.php?f=V39b9e1KpMKc

  2. The Following User Says Thank You to Duckload.us For This Useful Post:

    Wesker_TOT (10-28-2020)

  3. #2
    Senior Member
    สมัครเมื่อ
    Dec 2013
    โพสต์
    2,580
    Thanks
    4,501
    Thanked 0 Times in 0 Posts
    ขอบคุณครับ...

  4. #3
    Senior Member
    สมัครเมื่อ
    Jul 2013
    โพสต์
    1,784
    Thanks
    0
    Thanked 0 Times in 0 Posts
    ขอบคุณครับ

  5. #4
    Senior Member
    สมัครเมื่อ
    Jul 2012
    โพสต์
    7,315
    Thanks
    0
    Thanked 0 Times in 0 Posts
    ขอบคุณมากจ้า

+ ตอบกลับกระทู้

ข้อมูลกระทู้

Users Browsing this Thread

ในขณะนี้มี 1 ท่านดูกระทู้อยู่. (0 สมาชิกและ 1 ผู้เยี่ยมชม)

     

กฎการโพสต์ข้อความ

  • ท่าน ไม่สามารถ ตั้งกระทู้ใหม่ได้
  • ท่าน ไม่สามารถ ตอบกระทู้ได้
  • ท่าน ไม่สามารถ แนบไฟล์ได้
  • ท่าน ไม่สามารถ แก้ไขข้อความโพสต์ได้
  • BB code สถานะ เปิด
  • Smilies สถานะ เปิด
  • [IMG] สถานะ เปิด
  • HTML สถานะ ปิด