Tale of The Nine Tailed เป็นเรื่องราวของผู้ชายที่มีความหลังบางอย่างกับผู้ห ญิงที่จำอดีตตัวเองไม่ได้ ชายหนุ่มคนนั้นเป็นจิ้งจอกเก้าหางที่ยอมทิ้งชีวิตในฐ านะวิญญาณภูเขาแล้วมาอยู่บนโลกมนุษย์ ดูเหมือนว่าชายหญิงคู่นี้จะมีอะไรเกี่ยวของกันอยู่นะ แต่จะอะไรล่ะ เกิดอะไรขึ้นในอดีตกันแน่


Video
ID : 1
Format : AVC
Format/Info : Advanced Video Codec
Format profile : [email protected]
Format settings : CABAC / 1 Ref Frames
Format settings, CABAC : Yes
Format settings, Reference fra : 1 frame
Format settings, GOP : M=1, N=60
Codec ID : V_MPEG4/ISO/AVC
Duration : 1 h 5 min
Bit rate mode : Constant
Bit rate : 5 500 kb/s
Width : 1 920 pixels
Height : 1 080 pixels
Display aspect ratio : 16:9
Frame rate mode : Constant
Frame rate : 29.970 (30000/1001) FPS
Color space : YUV
Chroma subsampling : 4:2:0
Bit depth : 8 bits
Scan type : Progressive
Bits/(Pixel*Frame) : 0.089
Stream size : 2.53 GiB (95%)
Default : Yes
Forced : No

Audio
ID : 2
Format : AAC LC
Format/Info : Advanced Audio Codec Low Complexity
Codec ID : A_AAC-2
Duration : 1 h 5 min
Bit rate : 256 kb/s
Channel(s) : 2 channels
Channel layout : L R
Sampling rate : 48.0 kHz
Frame rate : 46.875 FPS (1024 SPF)
Compression mode : Lossy
Stream size : 121 MiB (4%)
Title : [Korean-AAC]
Language : Korean
Default : Yes
Forced : No

Text #1
ID : 3
Format : PGS
Muxing mode : zlib
Codec ID : S_HDMV/PGS
Codec ID/Info : Picture based subtitle format used on BDs/HD-DVDs
Duration : 1 h 4 min
Bit rate : 36.8 kb/s
Count of elements : 1524
Stream size : 17.1 MiB (1%)
Title : [Thai PGS]
Language : Thai
Default : Yes
Forced : No

Text #2
ID : 4
Format : UTF-8
Codec ID : S_TEXT/UTF8
Codec ID/Info : UTF-8 Plain Text
Duration : 1 h 4 min
Bit rate : 117 b/s
Count of elements : 762
Stream size : 55.7 KiB (0%)
Title : SRT
Language : Thai
Default : No
Forced : No








1
http://www.filecondo.com/dl.php?f=ke0b4f1KrbWr
2
http://www.filecondo.com/dl.php?f=a1e9f21KrbXr
3
http://www.filecondo.com/dl.php?f=8f02051Ku5qf
4
http://www.filecondo.com/dl.php?f=8105be1Ku5rf
5
http://www.filecondo.com/dl.php?f=ke97ac1KvyaG