+ ตอบกลับกระทู้
สรุปผลการค้นหา 1 ถึง 2 จากทั้งหมด 2
  1. #1
    Administrators รูปส่วนตัว Duckload.us
    สมัครเมื่อ
    Dec 2010
    โพสต์
    119,824
    Thanks
    7
    Thanked 125,278 Times in 56,033 Posts

    Thumbs up [เกาหลี]-[NF] BLACKPINK.Light.Up.the.Sky.2020.1080p.NF.WEB-DL.DDP5.1.x264.EN.TH.เสียง:ไทย เกาหลี อังกฤษ บรรยาย:ไทย:อังกฤษ.ซับไทยPGSคมชัด-Blu-ray.H.264.1080i. [Rip]-[พากย์ไทย บรรยายไทย]



    เรื่องย่อ

    BLACKPINK เกิร์ลกรุ๊ปชื่อดังทะลุทุกสถิติจากเกาหลีร่วมบอกเล่า เรื่องราวทุกรายละเอียดเกี่ยวกับการต่อสู้ฝ่าฟันอุปส รรคยากลำบากบนเส้นทางความฝัน ก่อนจะโด่งดังเป็นพลุแตก

    --------------------------------------------------------------------------------------------------

    General
    Unique ID : 303061922325483627975909055897601379691 (0xE3FF9A6623A3A40D7CFE5406543D0D6B)
    Complete name : D:BLACKPINK.Light.Up.the.Sky.2020.1080p.NF.WEB-DL.DDP5.1.x264.EN.TH.kiatplk.mkv
    Format : Matroska
    Format version : Version 4 / Version 2
    File size : 5.54 GiB
    Duration : 1 h 19 min
    Overall bit rate mode : Variable
    Overall bit rate : 9 966 kb/s
    Movie name : BLACKPINK.Light.Up.the.Sky.2020.1080p.NF.WEB-DL.DDP5.1.x264.EN.TH.kiatplk
    Encoded date : UTC 2020-10-14 23:58:23
    Writing application : mkvmerge v50.0.0 ('Awakenings') 64-bit
    Writing library : libebml v1.4.0 + libmatroska v1.6.2

    Video
    ID : 1
    Format : AVC
    Format/Info : Advanced Video Codec
    Format profile : [email protected]
    Format settings, CABAC : Yes
    Format settings, RefFrames : 3 frames
    Codec ID : V_MPEG4/ISO/AVC
    Duration : 1 h 19 min
    Bit rate mode : Variable
    Bit rate : 7 500 kb/s
    Maximum bit rate : 11.2 Mb/s
    Width : 1 920 pixels
    Height : 1 080 pixels
    Display aspect ratio : 16:9
    Frame rate mode : Constant
    Frame rate : 23.976 (24000/1001) FPS
    Color space : YUV
    Chroma subsampling : 4:2:0
    Bit depth : 8 bits
    Scan type : Progressive
    Bits/(Pixel*Frame) : 0.151
    Stream size : 4.10 GiB (74%)
    Writing library : x264 core 148 r2722 1b0121b
    Encoding settings : cabac=1 / ref=3 / deblock=1:0:0 / analyse=0x1:0x111 / me=umh / subme=10 / psy=1 / psy_rd=1.00:0.00 / mixed_ref=1 / me_range=24 / chroma_me=1 / trellis=2 / 8x8dct=0 / cqm=0 / deadzone=21,11 / fast_pskip=1 / chroma_qp_offset=-2 / threads=6 / lookahead_threads=1 / sliced_threads=0 / nr=0 / decimate=1 / interlaced=0 / bluray_compat=0 / stitchable=1 / constrained_intra=0 / bframes=2 / b_pyramid=0 / b_adapt=2 / b_bias=0 / direct=3 / weightb=1 / open_gop=0 / weightp=2 / keyint=250 / keyint_min=23 / scenecut=0 / intra_refresh=0 / rc_lookahead=48 / rc=2pass / mbtree=1 / bitrate=7500 / ratetol=1.0 / qcomp=0.50 / qpmin=6 / qpmax=51 / qpstep=4 / cplxblur=20.0 / qblur=0.5 / vbv_maxrate=11250 / vbv_bufsize=15000 / nal_hrd=vbr / filler=0 / ip_ratio=1.40 / aq=1:1.00
    Default : Yes
    Forced : No

    Audio #1
    ID : 2
    Format : E-AC-3
    Format/Info : Enhanced Audio Coding 3
    Format settings, Endianness : Big
    Codec ID : A_EAC3
    Duration : 1 h 19 min
    Bit rate mode : Constant
    Bit rate : 640 kb/s
    Channel(s) : 6 channels
    Channel positions : Front: L C R, Side: L R, LFE
    Sampling rate : 48.0 kHz
    Frame rate : 187.500 FPS (256 SPF)
    Compression mode : Lossy
    Stream size : 364 MiB (6%)
    Title : Audio Des--cription
    Language : Thai
    Service kind : Complete Main
    Default : No
    Forced : No

    Audio #2
    ID : 3
    Format : E-AC-3
    Format/Info : Enhanced Audio Coding 3
    Format settings, Endianness : Big
    Codec ID : A_EAC3
    Duration : 1 h 19 min
    Bit rate mode : Constant
    Bit rate : 640 kb/s
    Channel(s) : 6 channels
    Channel positions : Front: L C R, Side: L R, LFE
    Sampling rate : 48.0 kHz
    Frame rate : 187.500 FPS (256 SPF)
    Compression mode : Lossy
    Stream size : 364 MiB (6%)
    Title : English
    Language : English
    Service kind : Complete Main
    Default : No
    Forced : No

    Audio #3
    ID : 4
    Format : E-AC-3
    Format/Info : Enhanced Audio Coding 3
    Format settings, Endianness : Big
    Codec ID : A_EAC3
    Duration : 1 h 19 min
    Bit rate mode : Constant
    Bit rate : 640 kb/s
    Channel(s) : 6 channels
    Channel positions : Front: L C R, Side: L R, LFE
    Sampling rate : 48.0 kHz
    Frame rate : 187.500 FPS (256 SPF)
    Compression mode : Lossy
    Stream size : 364 MiB (6%)
    Title : Audio Des--cription
    Language : English
    Service kind : Complete Main
    Default : No
    Forced : No

    Audio #4
    ID : 5
    Format : E-AC-3
    Format/Info : Enhanced Audio Coding 3
    Format settings, Endianness : Big
    Codec ID : A_EAC3
    Duration : 1 h 19 min
    Bit rate mode : Constant
    Bit rate : 640 kb/s
    Channel(s) : 6 channels
    Channel positions : Front: L C R, Side: L R, LFE
    Sampling rate : 48.0 kHz
    Frame rate : 187.500 FPS (256 SPF)
    Compression mode : Lossy
    Stream size : 364 MiB (6%)
    Title : Audio Des--cription
    Language : Korean
    Service kind : Complete Main
    Default : No
    Forced : No

    Text #1
    ID : 6
    Format : UTF-8
    Codec ID : S_TEXT/UTF8
    Codec ID/Info : UTF-8 Plain Text
    Duration : 1 h 19 min
    Bit rate : 167 b/s
    Count of elements : 1107
    Stream size : 97.2 KiB (0%)
    Title : Thai
    Language : Thai
    Default : No
    Forced : No

    Text #2
    ID : 7
    Format : UTF-8
    Codec ID : S_TEXT/UTF8
    Codec ID/Info : UTF-8 Plain Text
    Duration : 1 h 18 min
    Bit rate : 130 b/s
    Count of elements : 1491
    Stream size : 75.5 KiB (0%)
    Title : English
    Language : English
    Default : No
    Forced : No

    Text #3
    ID : 8
    Format : PGS
    Muxing mode : zlib
    Codec ID : S_HDMV/PGS
    Codec ID/Info : Picture based subtitle format used on BDs/HD-DVDs
    Duration : 1 h 19 min
    Bit rate : 31.9 kb/s
    Count of elements : 2214
    Stream size : 18.1 MiB (0%)
    Title : Thai1080p Angsana UPC
    Language : Thai
    Default : Yes
    Forced : No

    Text #4
    ID : 9
    Format : PGS
    Muxing mode : zlib
    Codec ID : S_HDMV/PGS
    Codec ID/Info : Picture based subtitle format used on BDs/HD-DVDs
    Duration : 1 h 18 min
    Bit rate : 45.5 kb/s
    Count of elements : 2982
    Stream size : 25.6 MiB (0%)
    Title : Eng 1080p
    Language : English
    Default : No
    Forced : No







    Download: filecondo
    http://www.filecondo.com/dl.php?f=aa7b541KsZv4
    Download: cornfile
    http://cornfile.com/jwd4jkyem95q

  2. #2
    Senior Member
    สมัครเมื่อ
    Jul 2013
    โพสต์
    1,288
    Thanks
    0
    Thanked 0 Times in 0 Posts
    ขอบคุณครับ

+ ตอบกลับกระทู้

ข้อมูลกระทู้

Users Browsing this Thread

ในขณะนี้มี 1 ท่านดูกระทู้อยู่. (0 สมาชิกและ 1 ผู้เยี่ยมชม)

     

กฎการโพสต์ข้อความ

  • ท่าน ไม่สามารถ ตั้งกระทู้ใหม่ได้
  • ท่าน ไม่สามารถ ตอบกระทู้ได้
  • ท่าน ไม่สามารถ แนบไฟล์ได้
  • ท่าน ไม่สามารถ แก้ไขข้อความโพสต์ได้
  • BB code สถานะ เปิด
  • Smilies สถานะ เปิด
  • [IMG] สถานะ เปิด
  • HTML สถานะ ปิด