+ ตอบกลับกระทู้
สรุปผลการค้นหา 1 ถึง 7 จากทั้งหมด 7
  1. #1
    Administrators รูปส่วนตัว Duckload.us
    สมัครเมื่อ
    Dec 2010
    โพสต์
    133,190
    Thanks
    7
    Thanked 136,790 Times in 60,503 Posts

    Lightbulb [ฝรั่ง]-[โมใหม่ชัดๆ] Forever Season 1 : คดีมรณะอมตะซ่อนเงื่อน ปี 1 [22 ตอนจบ]-WEB-DL.H.264.1080p. [Hi-def rip from Master]-[พากย์ไทย-พากย์อังกฤษ-บรรยายอังกฤษ]
















    PLOT




    Forever คดีมรณะอมตะซ่อนเงื่อน เฮนรี่ มอร์แกนแพทย์ชันสูตรศพช่วยเหลือหน่วยงานรักษากฎหมายใ นเมืองนิวยอร์ก เฮนรี่ มีความลับของเขาเอง ความลับที่ว่าก็คือ เฮนรี่ มีอายุยืนยาวมาแล้วกว่า 200 ปีแม้ว่าเขาจะผ่านเหตุการณ์เลวร้ายที่พรากความตายมาแ ล้วนับครั้งไม่ถ้วน นั่นก็ไม่ได้ทำให้เขาตายอยู่ดี ซึ่งทุกครั้งหลังจากที่เขาตื่นจากเหตุการณ์เล่านั้นเ ขาจะไปปรากฏตัวที่แม่น้ำก่อนเป็นอันดับแรก เฮนรี่ ไม่เพียงแต่ทำงานเพื่อช่วยไขปริศนาคดีฆาตกรรม เขายังทำงานเพื่อพยายามไขปริศนาของตัวเองด้วย ปริศนาที่ว่าทำไมเขาจึงไม่แก่และไม่ตายเหมือนคนอื่นๆ









    Format : Matroska
    Format version : Version 4 / Version 2
    File size : 1.70 GiB
    Duration : 43 min 14 s
    Overall bit rate : 5 633 kb/s
    Encoded date : UTC 2020-10-12 08:23:35
    Writing application : mkvmerge v48.0.0 ('Fortress Around Your Heart') 64-bit
    Writing library : libebml v1.4.0 + libmatroska v1.6.0

    Video
    ID : 1
    Format : AVC
    Format/Info : Advanced Video Codec
    Format profile : [email protected]
    Format settings, CABAC : Yes
    Format settings, ReFrames : 4 frames
    Codec ID : V_MPEG4/ISO/AVC
    Duration : 43 min 14 s
    Bit rate : 4 799 kb/s
    Width : 1 916 pixels
    Height : 1 076 pixels
    Display aspect ratio : 16:9
    Frame rate mode : Constant
    Frame rate : 23.976 (23976/1000) FPS
    Color space : YUV
    Chroma subsampling : 4:2:0
    Bit depth : 8 bits
    Scan type : Progressive
    Bits/(Pixel*Frame) : 0.097
    Stream size : 1.45 GiB (85%)
    Language : English
    Default : Yes
    Forced : No
    Color range : Limited
    Color primaries : BT.709
    Transfer characteristics : BT.709
    Matrix coefficients : BT.709

    Audio #1
    ID : 2
    Format : AC-3
    Format/Info : Audio Coding 3
    Mode extension : CM (complete main)
    Format settings, Endianness : Big
    Codec ID : A_AC3
    Duration : 43 min 14 s
    Bit rate mode : Constant
    Bit rate : 448 kb/s
    Channel(s) : 2 channels
    Channel positions : Front: L R
    Sampling rate : 48.0 kHz
    Frame rate : 31.250 FPS (1536 spf)
    Compression mode : Lossy
    Stream size : 139 MiB (8%)
    Language : Thai
    Default : Yes
    Forced : No

    Audio #2
    ID : 3
    Format : AC-3
    Format/Info : Audio Coding 3
    Mode extension : CM (complete main)
    Format settings, Endianness : Big
    Codec ID : A_AC3
    Duration : 43 min 14 s
    Bit rate mode : Constant
    Bit rate : 384 kb/s
    Channel(s) : 6 channels
    Channel positions : Front: L C R, Side: L R, LFE
    Sampling rate : 48.0 kHz
    Frame rate : 31.250 FPS (1536 spf)
    Compression mode : Lossy
    Stream size : 119 MiB (7%)
    Language : English
    Default : No
    Forced : No

    Text
    ID : 4
    Format : UTF-8
    Codec ID : S_TEXT/UTF8
    Codec ID/Info : UTF-8 Plain Text
    Duration : 42 min 29 s
    Bit rate : 89 b/s
    Count of elements : 857
    Stream size : 27.9 KiB (0%)
    Title : CC
    Language : English
    Default : Yes
    Forced : No



    1
    http://www.filecondo.com/dl.php?f=dc5d621Ktm42
    2
    http://www.filecondo.com/dl.php?f=7335331Ktm50
    3
    http://www.filecondo.com/dl.php?f=Y4edcc1Ktm5X
    4
    http://www.filecondo.com/dl.php?f=g623c01Ktm6U
    5
    http://www.filecondo.com/dl.php?f=W6d65e1Ktm8U
    6
    http://www.filecondo.com/dl.php?f=q5b2a91Ktm9P
    7
    http://www.filecondo.com/dl.php?f=i2a0221KtmaO
    8
    http://www.filecondo.com/dl.php?f=h179c41KtmbL
    9
    http://www.filecondo.com/dl.php?f=aee0121KtmcK
    10
    http://www.filecondo.com/dl.php?f=t6da731KtmdH
    11
    http://www.filecondo.com/dl.php?f=5883951KtmeG
    12
    http://www.filecondo.com/dl.php?f=Me32ff1KtmfE
    13
    http://www.filecondo.com/dl.php?f=j1b4fd1KtmgB
    14
    http://www.filecondo.com/dl.php?f=0c03bf1KtmhB
    15
    http://www.filecondo.com/dl.php?f=65ab8a1Ktmiy
    16
    http://www.filecondo.com/dl.php?f=cdb3421Ktmjx
    17
    http://www.filecondo.com/dl.php?f=68aac21Ktmku
    18
    http://www.filecondo.com/dl.php?f=W069741MPs36
    19
    http://www.filecondo.com/dl.php?f=a0c34c1MPs45
    20
    http://www.filecondo.com/dl.php?f=u16a111Ktmno
    21
    http://www.filecondo.com/dl.php?f=mfe6921Ktmon
    22
    http://www.filecondo.com/dl.php?f=Zd28101Ktmpl

  2. The Following 2 Users Say Thank You to Duckload.us For This Useful Post:

    neorun (10-19-2020), thatsna4555555 (11-07-2021)

  3. #2
    Junior Member
    สมัครเมื่อ
    May 2017
    โพสต์
    7
    Thanks
    0
    Thanked 0 Times in 0 Posts
    ขอบคุณค่ะ มีแบบซับไทยมั้ยคะ

  4. #3
    Senior Member
    สมัครเมื่อ
    May 2012
    โพสต์
    1,032
    Thanks
    0
    Thanked 0 Times in 0 Posts
    ขอบคุณครับ

  5. #4
    Senior Member
    สมัครเมื่อ
    Jul 2013
    โพสต์
    2,886
    Thanks
    0
    Thanked 0 Times in 0 Posts
    ขอบคุณคร๊าบ ชอบมากๆ แนวนี้

  6. #5
    Senior Member
    สมัครเมื่อ
    Jul 2013
    โพสต์
    2,886
    Thanks
    0
    Thanked 0 Times in 0 Posts
    สนุกดี ชอบมากครับ ขอบคุณครับ

  7. #6
    Member
    สมัครเมื่อ
    Aug 2017
    โพสต์
    33
    Thanks
    0
    Thanked 0 Times in 0 Posts
    ขอบคุณมากครับ ขอรบกวนช่วยอัพใหม่ตอนที่ 18 และ 19 ด้วยครับ โหลดไม่ได้แล้ว
    จะอัพ Cronfile หรือ Filecondo ก็ได้ครับ
    แก้ไขครั้งล่าสุดโดย takao : 11-07-2021 เมื่อ 09:10 PM

  8. #7
    Member
    สมัครเมื่อ
    Aug 2017
    โพสต์
    33
    Thanks
    0
    Thanked 0 Times in 0 Posts
    โหลดได้แล้วครับ ขอบคุณมากครับ

+ ตอบกลับกระทู้

ข้อมูลกระทู้

Users Browsing this Thread

ในขณะนี้มี 1 ท่านดูกระทู้อยู่. (0 สมาชิกและ 1 ผู้เยี่ยมชม)

     

กฎการโพสต์ข้อความ

  • ท่าน ไม่สามารถ ตั้งกระทู้ใหม่ได้
  • ท่าน ไม่สามารถ ตอบกระทู้ได้
  • ท่าน ไม่สามารถ แนบไฟล์ได้
  • ท่าน ไม่สามารถ แก้ไขข้อความโพสต์ได้
  • BB code สถานะ เปิด
  • Smilies สถานะ เปิด
  • [IMG] สถานะ เปิด
  • HTML สถานะ ปิด