+ ตอบกลับกระทู้
สรุปผลการค้นหา 1 ถึง 5 จากทั้งหมด 5
  1. #1
    Administrators รูปส่วนตัว Duckload.us
    สมัครเมื่อ
    Dec 2010
    โพสต์
    119,649
    Thanks
    7
    Thanked 125,201 Times in 56,001 Posts

    Angry [ฝรั่ง]-[* ใหม่!! NETFLIX *] The Trial of the Chicago 7 (2020) : ชิคาโก 7 [เสียงอังกฤษ 5.1] [บรรยายไทย + อังกฤษ] [ซับไทย Master From Netflix + ซับ SRT , PGS]-WEB-DL.H.264.1080p. [Modified]-[Soundtrack บรรยายไทย]




    หากใครที่ชื่นชอบหนังจากการเขียนบทของ Aaron Sorkin มือเขียนของหนังที่ดูสนุกแม้จะเต็มไปด้วยบทสนทนาตลอด ทั้งเรื่อง เช่น The Social Network (2010), Moneyball (2011) หรือหนังเก่าน้ำดี A Few Good Men (1992) ต้องรอติดตามผลงานใหม่ของเขา The Trial of the Chicago 7 เป็นการเขียนบทและกำกับของ Sorkin ด้วย

    หนังจะเล่าเรื่องจากเหตุการณ์จริงที่เกิดขึ้นปี 1969 ซึ่งเป็นเหตุการณ์การประท้วงของประชาชนต่อต้านการเข้ าสู่สงครามเวียดนามของสหรัฐฯ และตั้งข้อกล่าวหารัฐบาลว่า เข้าแทรกแซงงานการเลือกตัวแทนชิงเก้าอี้ประธานาธิบดี ของพรรคเดโมแครตเมื่อปี 1968 เรื่องจะไม่เป็นเรื่องถ้าการประท้วงอยู่ในความสงบ แต่เกิดมีการปะทะกันเกิดขึ้นระหว่างตำรวจกับประชาชน และมีจับกุมผู้ต้องหาไป 7 คน จนเข้าสู่กระบวนการทางศาล และกลายเป็นคดีที่ถูกกล่าวขวัญยาวนาน


    Format : Matroska
    Format version : Version 4
    File size : 3.95 GiB
    Duration : 2 h 10 min
    Overall bit rate mode : Variable
    Overall bit rate : 4 348 kb/s
    Movie name : The.Trial.of.the.Chicago.7.2020.1080p.NF.WEB-DL.DDP5.1.x264_SkiesIT
    Encoded date : UTC 2020-10-16 09:11:13
    Writing application : mkvmerge v49.0.0 ('Sick Of Losing Soulmates') 64-bit
    Writing library : libebml v1.4.0 + libmatroska v1.6.1

    Video
    ID : 1
    Format : AVC
    Format/Info : Advanced Video Codec
    Format profile : [email protected]
    Format settings : CABAC / 3 Ref Frames
    Format settings, CABAC : Yes
    Format settings, Reference frames : 3 frames
    Codec ID : V_MPEG4/ISO/AVC
    Duration : 2 h 10 min
    Bit rate mode : Variable
    Bit rate : 3 650 kb/s
    Maximum bit rate : 5 475 kb/s
    Width : 1 920 pixels
    Height : 1 080 pixels
    Display aspect ratio : 16:9
    Frame rate mode : Constant
    Frame rate : 24.000 FPS
    Color space : YUV
    Chroma subsampling : 4:2:0
    Bit depth : 8 bits
    Scan type : Progressive
    Bits/(Pixel*Frame) : 0.073
    Stream size : 3.26 GiB (82%)
    Title : The.Trial.of.the.Chicago.7.2020.1080p.NF.WEB-DL.DDP5.1.x264_SkiesIT
    Writing library : x264 core 148 r2722 1b0121b
    Encoding settings : cabac=1 / ref=3 / deblock=1:0:0 / analyse=0x1:0x111 / me=umh / subme=10 / psy=1 / psy_rd=1.00:0.00 / mixed_ref=1 / me_range=24 / chroma_me=1 / trellis=2 / 8x8dct=0 / cqm=0 / deadzone=21,11 / fast_pskip=1 / chroma_qp_offset=-2 / threads=8 / lookahead_threads=1 / sliced_threads=0 / nr=0 / decimate=1 / interlaced=0 / bluray_compat=0 / stitchable=1 / constrained_intra=0 / bframes=2 / b_pyramid=0 / b_adapt=2 / b_bias=0 / direct=3 / weightb=1 / open_gop=0 / weightp=2 / keyint=250 / keyint_min=24 / scenecut=0 / intra_refresh=0 / rc_lookahead=48 / rc=2pass / mbtree=1 / bitrate=3650 / ratetol=1.0 / qcomp=0.50 / qpmin=6 / qpmax=51 / qpstep=4 / cplxblur=20.0 / qblur=0.5 / vbv_maxrate=5475 / vbv_bufsize=7300 / nal_hrd=vbr / filler=0 / ip_ratio=1.40 / aq=1:1.00
    Language : English
    Default : Yes
    Forced : No

    Audio
    ID : 2
    Format : E-AC-3
    Format/Info : Enhanced AC-3
    Commercial name : Dolby Digital Plus
    Codec ID : A_EAC3
    Duration : 2 h 10 min
    Bit rate mode : Constant
    Bit rate : 640 kb/s
    Channel(s) : 6 channels
    Channel layout : L R C LFE Ls Rs
    Sampling rate : 48.0 kHz
    Frame rate : 31.250 FPS (1536 SPF)
    Compression mode : Lossy
    Stream size : 596 MiB (15%)
    Language : English
    Service kind : Complete Main
    Default : Yes
    Forced : No

    Text #1
    ID : 3
    Format : UTF-8
    Codec ID : S_TEXT/UTF8
    Codec ID/Info : UTF-8 Plain Text
    Duration : 2 h 8 min
    Bit rate : 188 b/s
    Count of elements : 2088
    Stream size : 177 KiB (0%)
    Title : Thai SRT From Netflix
    Language : Thai
    Default : Yes
    Forced : No

    Text #2
    ID : 4
    Format : UTF-8
    Codec ID : S_TEXT/UTF8
    Codec ID/Info : UTF-8 Plain Text
    Duration : 2 h 8 min
    Bit rate : 96 b/s
    Count of elements : 2181
    Stream size : 90.1 KiB (0%)
    Title : English SRT
    Language : English
    Default : No
    Forced : No

    Text #3
    ID : 5
    Format : PGS
    Muxing mode : zlib
    Codec ID : S_HDMV/PGS
    Codec ID/Info : Picture based subtitle format used on BDs/HD-DVDs
    Duration : 2 h 8 min
    Bit rate : 57.2 kb/s
    Count of elements : 4176
    Stream size : 52.4 MiB (1%)
    Title : Thai PGS [Angsana]
    Language : Thai
    Default : No
    Forced : No

    Text #4
    ID : 6
    Format : PGS
    Muxing mode : zlib
    Codec ID : S_HDMV/PGS
    Codec ID/Info : Picture based subtitle format used on BDs/HD-DVDs
    Duration : 2 h 8 min
    Bit rate : 57.2 kb/s
    Count of elements : 4176
    Stream size : 52.4 MiB (1%)
    Title : Thai PGS [Angsana Yellow]
    Language : Thai
    Default : No
    Forced : No

    Text #5
    ID : 7
    Format : PGS
    Muxing mode : zlib
    Codec ID : S_HDMV/PGS
    Codec ID/Info : Picture based subtitle format used on BDs/HD-DVDs
    Duration : 2 h 8 min
    Bit rate : 56.5 kb/s
    Count of elements : 4176
    Stream size : 51.8 MiB (1%)
    Title : Thai PGS [Sarabun]
    Language : Thai
    Default : No
    Forced : No

    Text #6
    ID : 8
    Format : PGS
    Muxing mode : zlib
    Codec ID : S_HDMV/PGS
    Codec ID/Info : Picture based subtitle format used on BDs/HD-DVDs
    Duration : 2 h 8 min
    Bit rate : 56.5 kb/s
    Count of elements : 4176
    Stream size : 51.8 MiB (1%)
    Title : Thai PGS [Sarabun Yellow]
    Language : Thai
    Default : No
    Forced : No

    Text #7
    ID : 9
    Format : PGS
    Muxing mode : zlib
    Codec ID : S_HDMV/PGS
    Codec ID/Info : Picture based subtitle format used on BDs/HD-DVDs
    Duration : 2 h 8 min
    Bit rate : 58.4 kb/s
    Count of elements : 4362
    Stream size : 53.4 MiB (1%)
    Title : English PGS
    Language : English
    Default : No
    Forced : No











    http://cornfile.com/p1p5dh8avnc6

  2. The Following User Says Thank You to Duckload.us For This Useful Post:

    Tatum03 (10-17-2020)

  3. #2
    Senior Member รูปส่วนตัว ksurachai
    สมัครเมื่อ
    Nov 2019
    โพสต์
    221
    Thanks
    99
    Thanked 0 Times in 0 Posts
    โหลดไม่ได้ครับ

  4. #3
    Senior Member
    สมัครเมื่อ
    Oct 2013
    ที่อยู่
    Thailand
    โพสต์
    1,397
    Thanks
    1,265
    Thanked 0 Times in 0 Posts
    ขอบคุณมาก

  5. #4
    Senior Member
    สมัครเมื่อ
    Oct 2013
    ที่อยู่
    Thailand
    โพสต์
    1,397
    Thanks
    1,265
    Thanked 0 Times in 0 Posts
    ลองโหลดใหม่นะ








  6. #5
    Senior Member
    สมัครเมื่อ
    Jul 2013
    โพสต์
    1,280
    Thanks
    0
    Thanked 0 Times in 0 Posts
    ขอบคุณครับ

+ ตอบกลับกระทู้

ข้อมูลกระทู้

Users Browsing this Thread

ในขณะนี้มี 1 ท่านดูกระทู้อยู่. (0 สมาชิกและ 1 ผู้เยี่ยมชม)

     

กฎการโพสต์ข้อความ

  • ท่าน ไม่สามารถ ตั้งกระทู้ใหม่ได้
  • ท่าน ไม่สามารถ ตอบกระทู้ได้
  • ท่าน ไม่สามารถ แนบไฟล์ได้
  • ท่าน ไม่สามารถ แก้ไขข้อความโพสต์ได้
  • BB code สถานะ เปิด
  • Smilies สถานะ เปิด
  • [IMG] สถานะ เปิด
  • HTML สถานะ ปิด