+ ตอบกลับกระทู้
สรุปผลการค้นหา 1 ถึง 3 จากทั้งหมด 3
  1. #1
    Administrators รูปส่วนตัว Duckload.us
    สมัครเมื่อ
    Dec 2010
    โพสต์
    119,674
    Thanks
    7
    Thanked 125,220 Times in 56,008 Posts

    Angry [จีน]-A Choo (2020) ฮัดเช้ย... รักแท้ไม่แพ้ทาง - [Soundtrack บรรยายไทย+อังกฤษ] CHINESE.1080p.NF.WEBRip.DDP5.1.x264




    ด้วยความอยากเอาชนะใจผู้หญิงที่ปิ๊งมาตั้งแต่ตอนอยู่ บ้านเด็กกำพร้ำ อี้จื้อจึงกลายเป็นนักมวยผู้มีพลังเหนือมนุษย์ ไม่นานเขาก็ได้พิสูจน์ฝีมือเมื่อต้องเผชิญสุดยอดวายร ้าย


    Duration : 1 h 41 min
    Overall bit rate mode : Variable
    Overall bit rate : 5 989 kb/s
    Encoded date : UTC 2020-10-14 03:09:28
    Writing application : mkvmerge v49.0.0 ('Sick Of Losing Soulmates') 64-bit
    Writing library : libebml v1.4.0 + libmatroska v1.6.1

    Video
    ID : 1
    Format : AVC
    Format/Info : Advanced Video Codec
    Format profile : [email protected]
    Format settings : CABAC / 3 Ref Frames
    Format settings, CABAC : Yes
    Format settings, Reference frames : 3 frames
    Codec ID : V_MPEG4/ISO/AVC
    Duration : 1 h 41 min
    Bit rate mode : Variable
    Bit rate : 5 360 kb/s
    Maximum bit rate : 8 040 kb/s
    Width : 1 920 pixels
    Height : 1 080 pixels
    Display aspect ratio : 16:9
    Frame rate mode : Constant
    Frame rate : 24.000 FPS
    Color space : YUV
    Chroma subsampling : 4:2:0
    Bit depth : 8 bits
    Scan type : Progressive
    Bits/(Pixel*Frame) : 0.108
    Stream size : 3.78 GiB (89%)
    Default : Yes
    Forced : No

    Audio
    ID : 2
    Format : E-AC-3
    Format/Info : Enhanced AC-3
    Commercial name : Dolby Digital Plus
    Codec ID : A_EAC3
    Duration : 1 h 41 min
    Bit rate mode : Constant
    Bit rate : 640 kb/s
    Channel(s) : 6 channels
    Channel layout : L R C LFE Ls Rs
    Sampling rate : 48.0 kHz
    Frame rate : 31.250 FPS (1536 SPF)
    Compression mode : Lossy
    Stream size : 464 MiB (11%)
    Title : 国 语 (臺 灣 ) [Original]
    Language : Chinese
    Service kind : Complete Main
    Default : Yes
    Forced : No

    Text #1
    ID : 3
    Format : UTF-8
    Codec ID : S_TEXT/UTF8
    Codec ID/Info : UTF-8 Plain Text
    Duration : 1 h 40 min
    Bit rate : 49 b/s
    Count of elements : 1381
    Stream size : 36.5 KiB (0%)
    Title : English
    Language : English
    Default : Yes
    Forced : No

    Text #2
    ID : 4
    Format : UTF-8
    Codec ID : S_TEXT/UTF8
    Codec ID/Info : UTF-8 Plain Text
    Duration : 1 h 40 min
    Bit rate : 76 b/s
    Count of elements : 1392
    Stream size : 56.0 KiB (0%)
    Title : ا ل ع ر ب ي ة
    Language : Arabic
    Default : No
    Forced : No

    Text #3
    ID : 5
    Format : UTF-8
    Codec ID : S_TEXT/UTF8
    Codec ID/Info : UTF-8 Plain Text
    Duration : 1 h 40 min
    Bit rate : 57 b/s
    Count of elements : 1509
    Stream size : 42.1 KiB (0%)
    Title : Indonesia
    Language : Indonesian
    Default : No
    Forced : No

    Text #4
    ID : 6
    Format : UTF-8
    Codec ID : S_TEXT/UTF8
    Codec ID/Info : UTF-8 Plain Text
    Duration : 1 h 40 min
    Bit rate : 48 b/s
    Count of elements : 1435
    Stream size : 35.6 KiB (0%)
    Title : 日 本 語
    Language : Japanese
    Default : No
    Forced : No

    Text #5
    ID : 7
    Format : UTF-8
    Codec ID : S_TEXT/UTF8
    Codec ID/Info : UTF-8 Plain Text
    Duration : 1 h 40 min
    Bit rate : 64 b/s
    Count of elements : 1498
    Stream size : 47.0 KiB (0%)
    Title : 한 국 어
    Language : Korean
    Default : No
    Forced : No

    Text #6
    ID : 8
    Format : UTF-8
    Codec ID : S_TEXT/UTF8
    Codec ID/Info : UTF-8 Plain Text
    Duration : 1 h 40 min
    Bit rate : 55 b/s
    Count of elements : 1388
    Stream size : 41.0 KiB (0%)
    Title : Melayu
    Language : Malay
    Default : No
    Forced : No

    Text #7
    ID : 9
    Format : UTF-8
    Codec ID : S_TEXT/UTF8
    Codec ID/Info : UTF-8 Plain Text
    Duration : 1 h 40 min
    Bit rate : 136 b/s
    Count of elements : 1464
    Stream size : 100 KiB (0%)
    Title : ไทย
    Language : Thai
    Default : No
    Forced : No

    Text #8
    ID : 10
    Format : UTF-8
    Codec ID : S_TEXT/UTF8
    Codec ID/Info : UTF-8 Plain Text
    Duration : 1 h 40 min
    Bit rate : 71 b/s
    Count of elements : 1382
    Stream size : 52.6 KiB (0%)
    Title : Tiế ng Việ t
    Language : Vietnamese
    Default : No
    Forced : No

    Text #9
    ID : 11
    Format : UTF-8
    Codec ID : S_TEXT/UTF8
    Codec ID/Info : UTF-8 Plain Text
    Duration : 1 h 40 min
    Bit rate : 51 b/s
    Count of elements : 1549
    Stream size : 37.8 KiB (0%)
    Title : 中 文 ( 简 体 )
    Language : Chinese
    Default : No
    Forced : No

    Text #10
    ID : 12
    Format : UTF-8
    Codec ID : S_TEXT/UTF8
    Codec ID/Info : UTF-8 Plain Text
    Duration : 1 h 35 min
    Bit rate : 53 b/s
    Count of elements : 1511
    Stream size : 37.4 KiB (0%)
    Title : 中 文 ( 繁 體 )
    Language : Chinese
    Default : No
    Forced : No





    A Choo (2020).mkv - 4.0 GB
    A.Choo.2020.CHINESE.1080p.NF.WEBRip.DDP5.1.x264.mk v - 4.2 GB
    A.Choo.2020.CHINESE.1080p.NF.WEBRip.DDP5.1,[email protected] mkv - 4561947257

  2. The Following 2 Users Say Thank You to Duckload.us For This Useful Post:

    noi54 (10-20-2020), Wesker_TOT (10-19-2020)

  3. #2
    Senior Member
    สมัครเมื่อ
    Jul 2013
    โพสต์
    1,282
    Thanks
    0
    Thanked 0 Times in 0 Posts
    พระเอกคนโปรด ขอบคุณครับ

  4. #3
    Senior Member
    สมัครเมื่อ
    Dec 2013
    โพสต์
    2,421
    Thanks
    4,346
    Thanked 0 Times in 0 Posts
    ขอบคุณนะครับ...

+ ตอบกลับกระทู้

ข้อมูลกระทู้

Users Browsing this Thread

ในขณะนี้มี 3 ท่านดูกระทู้อยู่. (0 สมาชิกและ 3 ผู้เยี่ยมชม)

     

กฎการโพสต์ข้อความ

  • ท่าน ไม่สามารถ ตั้งกระทู้ใหม่ได้
  • ท่าน ไม่สามารถ ตอบกระทู้ได้
  • ท่าน ไม่สามารถ แนบไฟล์ได้
  • ท่าน ไม่สามารถ แก้ไขข้อความโพสต์ได้
  • BB code สถานะ เปิด
  • Smilies สถานะ เปิด
  • [IMG] สถานะ เปิด
  • HTML สถานะ ปิด