+ ตอบกลับกระทู้
สรุปผลการค้นหา 1 ถึง 2 จากทั้งหมด 2
  1. #1
    Administrators รูปส่วนตัว Duckload.us
    สมัครเมื่อ
    Dec 2010
    โพสต์
    126,456
    Thanks
    7
    Thanked 131,130 Times in 58,066 Posts

    Angry [ฝรั่ง]-[พิเศษมีเสียงไทย] Blast From The Past (1999) : มนุษย์หลุมหลบภัยบ้าหลุดโลก-Blu-ray.H.264.1080p. [Modified]-[พากย์ไทย บรรยายไทยคมชัด PGS]













    PLOT




    เมื่อ ดร. อัจฉริยะผู้เกลียดคอมมิวนิสต์เข้าไส้ คิดว่าถ้าสงครามเย็นยังดำเนินต่อไป จะต้องเกิดสงครามขึ้นแน่ จึงได้ทำการสร้างหลุมหลบภัยใต้ดินขึ้นที่หลังบ้านของ เขา และได้ลงไปอาศัยอยู่ในหลุมหลบภัย เนื่องจากเข้าใจผิดว่าคิดว่าเครื่องบินตกเป็นระเบิดท ี่รัสเซียมาทิ้งบอมบ์ที่อเมริกา หลังจากผ่านไปได้ 30 กว่าปี จนลูกชาย อดัม เว็บเบอร์ โตเป็นหนุ่ม จึงได้ส่งให้อดัมขึ้นมาบนพื้นดินอีกครั้งเพื่อซื้อขอ งใช้ที่จำเป็นเนื่องจากร่อยหรอลงแล้ว เขาจึงได้พบกับ อีฟ เรื่องวุ่น ๆ กับความรักของเขาจึงเกิดขึ้น










    Format : Matroska
    Format version : Version 4 / Version 2
    File size : 4.27 GiB
    Duration : 1 h 52 min
    Overall bit rate mode : Variable
    Writing application : mkvmerge v48.0.0 ('Fortress Around Your Heart') 64-bit
    Writing library : libebml v1.4.0 + libmatroska v1.6.0

    Video
    ID : 1
    Format : AVC
    Format/Info : Advanced Video Codec
    Format profile : [email protected]
    Format settings, CABAC : Yes
    Format settings, ReFrames : 1 frame
    Codec ID : V_MPEG4/ISO/AVC
    Duration : 1 h 52 min
    Bit rate mode : Variable
    Bit rate : 4 523 kb/s
    Maximum bit rate : 13.5 Mb/s
    Width : 1 920 pixels
    Height : 800 pixels
    Display aspect ratio : 2.40:1
    Frame rate mode : Constant
    Frame rate : 23.976 (24000/1001) FPS
    Color space : YUV
    Chroma subsampling : 4:2:0
    Bit depth : 8 bits
    Scan type : Progressive
    Bits/(Pixel*Frame) : 0.123
    Stream size : 3.54 GiB (83%)
    Language : English
    Default : Yes
    Forced : No

    Audio #1
    ID : 2
    Format : AC-3
    Format/Info : Audio Coding 3
    Mode extension : CM (complete main)
    Format settings, Endianness : Big
    Codec ID : A_AC3
    Duration : 1 h 52 min
    Bit rate mode : Constant
    Bit rate : 448 kb/s
    Channel(s) : 2 channels
    Channel positions : Front: L R
    Sampling rate : 48.0 kHz
    Frame rate : 31.250 FPS (1536 spf)
    Compression mode : Lossy
    Stream size : 359 MiB (8%)
    Language : Thai
    Default : Yes
    Forced : No

    Audio #2
    ID : 3
    Format : AC-3
    Format/Info : Audio Coding 3
    Mode extension : CM (complete main)
    Format settings, Endianness : Big
    Codec ID : A_AC3
    Duration : 1 h 52 min
    Bit rate mode : Constant
    Bit rate : 448 kb/s
    Channel(s) : 6 channels
    Channel positions : Front: L C R, Side: L R, LFE
    Sampling rate : 48.0 kHz
    Frame rate : 31.250 FPS (1536 spf)
    Compression mode : Lossy
    Stream size : 359 MiB (8%)
    Language : English
    Default : No
    Forced : No

    Text #1
    ID : 4
    Format : PGS
    Muxing mode : zlib
    Codec ID : S_HDMV/PGS
    Codec ID/Info : Picture based subtitle format used on BDs/HD-DVDs
    Duration : 1 h 45 min
    Bit rate : 35.2 kb/s
    Count of elements : 3362
    Stream size : 26.5 MiB (1%)
    Language : Thai
    Default : Yes
    Forced : No

    Text #2
    ID : 5
    Format : PGS
    Muxing mode : zlib
    Codec ID : S_HDMV/PGS
    Codec ID/Info : Picture based subtitle format used on BDs/HD-DVDs
    Duration : 1 h 45 min
    Bit rate : 32.3 kb/s
    Count of elements : 3362
    Stream size : 24.3 MiB (1%)
    Title : Yellow
    Language : Thai
    Default : No
    Forced : No

    Text #3
    ID : 6
    Format : UTF-8
    Codec ID : S_TEXT/UTF8
    Codec ID/Info : UTF-8 Plain Text
    Duration : 1 h 45 min
    Bit rate : 126 b/s
    Count of elements : 1681
    Stream size : 97.6 KiB (0%)
    Language : Thai
    Default : No
    Forced : No

    Text #4
    ID : 7
    Format : UTF-8
    Codec ID : S_TEXT/UTF8
    Codec ID/Info : UTF-8 Plain Text
    Duration : 1 h 45 min
    Bit rate : 76 b/s
    Count of elements : 1673
    Stream size : 58.9 KiB (0%)
    Language : English
    Default : No
    Forced : No

    http://cornfile.com/hayjtejul2tl

  2. #2
    Senior Member
    สมัครเมื่อ
    Jun 2014
    โพสต์
    5,292
    Thanks
    0
    Thanked 0 Times in 0 Posts
    ขอบคุณครับ

+ ตอบกลับกระทู้

ข้อมูลกระทู้

Users Browsing this Thread

ในขณะนี้มี 1 ท่านดูกระทู้อยู่. (0 สมาชิกและ 1 ผู้เยี่ยมชม)

     

กฎการโพสต์ข้อความ

  • ท่าน ไม่สามารถ ตั้งกระทู้ใหม่ได้
  • ท่าน ไม่สามารถ ตอบกระทู้ได้
  • ท่าน ไม่สามารถ แนบไฟล์ได้
  • ท่าน ไม่สามารถ แก้ไขข้อความโพสต์ได้
  • BB code สถานะ เปิด
  • Smilies สถานะ เปิด
  • [IMG] สถานะ เปิด
  • HTML สถานะ ปิด