+ ตอบกลับกระทู้
สรุปผลการค้นหา 1 ถึง 6 จากทั้งหมด 6
  1. #1
    Administrators รูปส่วนตัว Duckload.us
    สมัครเมื่อ
    Dec 2010
    โพสต์
    131,964
    Thanks
    7
    Thanked 135,478 Times in 59,899 Posts

    Lightbulb [ญี่ปุ่น]-Kimetsu no Yaiba ดาบพิฆาตอสูร เสียง Cartoon Club [เสียง:ไทย AC-3-ญีปุ่น Flac ][บรรยาย: ไทย PGS]-Blu-ray.H.265.1080p. [rip from Master]-[พากย์ไทย บรรยายไทย]






    เรื่องย่อ

    เรื่องราวในยุคไทโช (1912-1926) ทันจิโร่เด็กหนุ่มขายถ่านที่แสนอ่อนโยน วันหนึ่งครอบครัวของเขาถูกอสูรฆ่าตาย ส่วนเนซึโกะ น้องสาวของเขาก็โดนเปลี่ยนเป็นอสูร ในตอนนั้นเองนักล่าอสูรนามว่า โทมิโอกะ งิยู ก็ได้ปรากฏตัวขึ้นและคิดจะกำจัดเนซึโกะ ทว่าเขาก็ต้องประหลาดใจที่เนซึโกะกับทันจิโร่กลับปกป ้องกันและกัน ยิ่งได้เห็นฝีมือการต่อสู้ของทันจิโร่ทำให้ งิยูตัดสินใจส่งตัวพวกเขาไปให้สหายเก่าแก่ของตนเองช่ วยฝึกฝนให้ นั่นจึงเป็นจุดเริ่มต้นการเป็นนักล่าอสูรของทันจิโร่ เพื่อช่วยน้องสาวให้กลับมาเป็นมนุษย์อีกครั้งและเพื่ อตามล่าอสูรที่ฆ่าครอบครัวของเขา...


    Video
    ID : 1
    Format : AVC
    Format/Info : Advanced Video Codec
    Format profile : High [email protected]
    Format settings : CABAC / 5 Ref Frames
    Format settings, CABAC : Yes
    Format settings, Reference fra : 5 frames
    Codec ID : V_MPEG4/ISO/AVC
    Duration : 23 min 41 s
    Bit rate : 11.0 Mb/s
    Width : 1 920 pixels
    Height : 1 080 pixels
    Display aspect ratio : 16:9
    Frame rate mode : Constant
    Frame rate : 23.976 (24000/1001) FPS
    Color space : YUV
    Chroma subsampling : 4:2:0
    Bit depth : 10 bits
    Scan type : Progressive
    Bits/(Pixel*Frame) : 0.222
    Stream size : 1.82 GiB (77%)
    Writing library : x264 core 157 r2935 545de2f
    Encoding settings : cabac=1 / ref=5 / deblock=1:1:1 / analyse=0x3:0x113 / me=umh / subme=9 / psy=1 / psy_rd=1.00:0.00 / mixed_ref=1 / me_range=32 / chroma_me=1 / trellis=1 / 8x8dct=1 / cqm=0 / deadzone=21,11 / fast_pskip=0 / chroma_qp_offset=-2 / threads=34 / lookahead_threads=2 / sliced_threads=0 / nr=0 / decimate=1 / interlaced=0 / bluray_compat=0 / stitchable=1 / constrained_intra=0 / bframes=3 / b_pyramid=2 / b_adapt=2 / b_bias=0 / direct=1 / weightb=1 / open_gop=0 / weightp=1 / keyint=240 / keyint_min=23 / scenecut=40 / intra_refresh=0 / rc_lookahead=40 / rc=crf / mbtree=1 / crf=16.0 / qcomp=0.70 / qpmin=0 / qpmax=69 / qpstep=4 / ip_ratio=1.40 / aq=1:1.00
    Language : Japanese
    Default : Yes
    Forced : No

    Audio #1
    ID : 2
    Format : AC-3
    Format/Info : Audio Coding 3
    Commercial name : Dolby Digital
    Codec ID : A_AC3
    Duration : 23 min 40 s
    Bit rate mode : Constant
    Bit rate : 448 kb/s
    Channel(s) : 2 channels
    Channel layout : L R
    Sampling rate : 48.0 kHz
    Frame rate : 31.250 FPS (1536 SPF)
    Compression mode : Lossy
    Stream size : 75.8 MiB (3%)
    Title : [AC-3-Thai]
    Language : Thai
    Service kind : Complete Main
    Default : Yes
    Forced : No

    Audio #2
    ID : 3
    Format : FLAC
    Format/Info : Free Lossless Audio Codec
    Codec ID : A_FLAC
    Duration : 23 min 41 s
    Bit rate mode : Variable
    Bit rate : 1 438 kb/s
    Channel(s) : 2 channels
    Channel layout : L R
    Sampling rate : 48.0 kHz
    Frame rate : 11.719 FPS (4096 SPF)
    Bit depth : 24 bits
    Compression mode : Lossless
    Stream size : 244 MiB (10%)
    Title : [FLAC-Japanese]
    Writing library : libFLAC 1.3.2 (UTC 2017-01-01)
    Language : Japanese
    Default : No
    Forced : No

    Audio #3
    ID : 4
    Format : FLAC
    Format/Info : Free Lossless Audio Codec
    Codec ID : A_FLAC
    Duration : 23 min 41 s
    Bit rate mode : Variable
    Bit rate : 1 316 kb/s
    Channel(s) : 2 channels
    Channel layout : L R
    Sampling rate : 48.0 kHz
    Frame rate : 11.719 FPS (4096 SPF)
    Bit depth : 24 bits
    Compression mode : Lossless
    Stream size : 223 MiB (9%)
    Title : [FLAC-Commentary]
    Writing library : libFLAC 1.3.2 (UTC 2017-01-01)
    Language : Japanese
    Default : No
    Forced : No

    Text
    ID : 5
    Format : PGS
    Muxing mode : zlib
    Codec ID : S_HDMV/PGS
    Codec ID/Info : Picture based subtitle format used on BDs/HD-DVDs
    Duration : 23 min 13 s
    Bit rate : 36.1 kb/s
    Count of elements : 634
    Stream size : 5.99 MiB (0%)
    Title : [PGS-Thai Netflix]
    Language : Thai
    Default : Yes
    Forced : No










    1
    http://www.filecondo.com/dl.php?f=V9cb701KwTGh
    2
    http://www.filecondo.com/dl.php?f=i094861KwTQJ
    3
    http://www.filecondo.com/dl.php?f=P7809f1KwTYu
    4
    http://www.filecondo.com/dl.php?f=V4f3921KwTZp
    5
    http://www.filecondo.com/dl.php?f=gef0dd1KwU0n
    6
    http://www.filecondo.com/dl.php?f=f2fbf91KwU1k
    7
    http://www.filecondo.com/dl.php?f=Z454421KwU2j
    8
    http://www.filecondo.com/dl.php?f=u96ccc1KwU3i
    9
    http://www.filecondo.com/dl.php?f=e48e971KwU4k
    10
    http://www.filecondo.com/dl.php?f=Q18f021KwTH8
    11
    http://www.filecondo.com/dl.php?f=K52d271KwTI2
    12
    http://www.filecondo.com/dl.php?f=n654c91KwTIX
    13
    http://www.filecondo.com/dl.php?f=Ff42581KwTJX
    14
    http://www.filecondo.com/dl.php?f=If06ac1KwTKU
    15
    http://www.filecondo.com/dl.php?f=Mf2b251KwTLS
    16
    http://www.filecondo.com/dl.php?f=v7cbd91KwTMQ
    17
    http://www.filecondo.com/dl.php?f=99113d1KwTNO
    18
    http://www.filecondo.com/dl.php?f=A269d31KwTON
    19
    http://www.filecondo.com/dl.php?f=85956b1M6RBz fix
    20
    http://www.filecondo.com/dl.php?f=I6787a1KwTRF
    21
    http://www.filecondo.com/dl.php?f=m506ad1KwTSE
    22
    http://www.filecondo.com/dl.php?f=zaa7f11KwTTA
    23
    http://www.filecondo.com/dl.php?f=ef0a2c1KwTUy
    24
    http://www.filecondo.com/dl.php?f=6f86ee1KwTVx
    25
    http://www.filecondo.com/dl.php?f=6bd4781KwTWv
    26
    http://www.filecondo.com/dl.php?f=i261571KwTXt

  2. The Following User Says Thank You to Duckload.us For This Useful Post:

    Wesker_TOT (10-28-2020)

  3. #2
    Junior Member
    สมัครเมื่อ
    Mar 2015
    โพสต์
    2
    Thanks
    0
    Thanked 0 Times in 0 Posts
    เหมือนลิงก์ตอนที่ 19 มันผิดนะครับ

  4. #3
    Senior Member
    สมัครเมื่อ
    Dec 2013
    โพสต์
    3,184
    Thanks
    5,098
    Thanked 0 Times in 0 Posts
    เหมือนลิงก์ตอนที่ 19 มันผิดนะครับ ซา้ำ 18 เฉย

  5. #4
    Junior Member
    สมัครเมื่อ
    Jun 2018
    โพสต์
    11
    Thanks
    35
    Thanked 0 Times in 0 Posts
    ตอนที่ 19 ลิงค์เป็น ตอนที่ 2 (ep.2_ตอน_ผู้ฝึกสอน_อุโรโคดากิ_ซาคอนจิ) ค่ะ

  6. #5
    Senior Member
    สมัครเมื่อ
    Jul 2013
    โพสต์
    2,757
    Thanks
    0
    Thanked 0 Times in 0 Posts
    ขอบคุณครับ เดี๋ยวรอตัวแก้ไขก่อน โหลดแล้วเดี๋ยวขาดตอน

  7. #6
    Administrators รูปส่วนตัว Duckload.us
    สมัครเมื่อ
    Dec 2010
    โพสต์
    131,964
    Thanks
    7
    Thanked 135,478 Times in 59,899 Posts
    อ้างอิง โพสต์ต้นฉบับโดยคุณ dorapao ดูโพสต์
    ตอนที่ 19 ลิงค์เป็น ตอนที่ 2 (ep.2_ตอน_ผู้ฝึกสอน_อุโรโคดากิ_ซาคอนจิ) ค่ะ
    เรียนแจ้ง แก้ไขแล้วครับ

+ ตอบกลับกระทู้

ข้อมูลกระทู้

Users Browsing this Thread

ในขณะนี้มี 1 ท่านดูกระทู้อยู่. (0 สมาชิกและ 1 ผู้เยี่ยมชม)

     

กฎการโพสต์ข้อความ

  • ท่าน ไม่สามารถ ตั้งกระทู้ใหม่ได้
  • ท่าน ไม่สามารถ ตอบกระทู้ได้
  • ท่าน ไม่สามารถ แนบไฟล์ได้
  • ท่าน ไม่สามารถ แก้ไขข้อความโพสต์ได้
  • BB code สถานะ เปิด
  • Smilies สถานะ เปิด
  • [IMG] สถานะ เปิด
  • HTML สถานะ ปิด