+ ตอบกลับกระทู้
สรุปผลการค้นหา 1 ถึง 2 จากทั้งหมด 2
  1. #1
    Administrators รูปส่วนตัว Duckload.us
    สมัครเมื่อ
    Dec 2010
    โพสต์
    120,776
    Thanks
    7
    Thanked 126,229 Times in 56,384 Posts

    Lightbulb [NETFLIX] Secrets of the Saqqara Tomb (2020) ไขความลับสุสานซัคคารา-WEB-DL.AC-3.1080p.




    หลังจากมีการขุดพบหลุมศพที่ไม่เคยมีใครแตะต้องมาเป็น เวลา 4,400 ปี กลุ่มนักโบราณคดีชาวอียิปต์ต่างพยายามที่จะไขประวัติ ศาสตร์จากการค้นพบอันน่าทึ่งครั้งนี้



    Format : Matroska
    Format version : Version 4
    File size : 4.40 GiB
    Duration : 1 h 54 min
    Overall bit rate : 5 515 kb/s
    Encoded date : UTC 2020-10-28 13:50:33
    Writing application : mkvmerge v51.0.0 ('I Wish') 64-bit
    Writing library : libebml v1.4.0 + libmatroska v1.6.2

    Video
    ID : 1
    Format : AVC
    Format/Info : Advanced Video Codec
    Format profile : [email protected]
    Format settings : CABAC / 3 Ref Frames
    Format settings, CABAC : Yes
    Format settings, Reference : 3 frames
    Codec ID : V_MPEG4/ISO/AVC
    Duration : 1 h 54 min
    Bit rate : 4 817 kb/s
    Width : 1 920 pixels
    Height : 816 pixels
    Display aspect ratio : 2.35:1
    Frame rate mode : Constant
    Frame rate : 25.000 FPS
    Color space : YUV
    Chroma subsampling : 4:2:0
    Bit depth : 8 bits
    Scan type : Progressive
    Bits/(Pixel*Frame) : 0.123
    Stream size : 3.84 GiB (87%)
    Language : English
    Default : Yes
    Forced : No

    Audio
    ID : 2
    Format : E-AC-3
    Format/Info : Enhanced AC-3
    Commercial name : Dolby Digital Plus
    Codec ID : A_EAC3
    Duration : 1 h 54 min
    Bit rate mode : Constant
    Bit rate : 640 kb/s
    Channel(s) : 6 channels
    Channel layout : L R C LFE Ls Rs
    Sampling rate : 48.0 kHz
    Frame rate : 31.250 FPS (1536 SPF)
    Compression mode : Lossy
    Stream size : 523 MiB (12%)
    Title : AC-3 English
    Language : English
    Service kind : Complete Main
    Default : Yes
    Forced : No

    Text #1
    ID : 3
    Format : VobSub
    Muxing mode : zlib
    Codec ID : S_VOBSUB
    Codec ID/Info : Picture based subtitle format used on DVDs
    Duration : 1 h 52 min
    Bit rate : 12.5 kb/s
    Count of elements : 1357
    Stream size : 10.1 MiB (0%)
    Title : Sub Thai 1080p
    Language : Thai
    Default : No
    Forced : No

    Text #2
    ID : 4
    Format : UTF-8
    Codec ID : S_TEXT/UTF8
    Codec ID/Info : UTF-8 Plain Text
    Duration : 1 h 52 min
    Bit rate : 141 b/s
    Count of elements : 1357
    Stream size : 117 KiB (0%)
    Title : Sub Thai SRT
    Language : Thai
    Default : No
    Forced : No

    Text #3
    ID : 5
    Format : PGS
    Muxing mode : zlib
    Codec ID : S_HDMV/PGS
    Codec ID/Info : Picture based subtitle format used on BDs/HD-DVDs
    Duration : 1 h 52 min
    Bit rate : 40.5 kb/s
    Count of elements : 2714
    Stream size : 32.7 MiB (1%)
    Title : Sub Thai PGS
    Language : Thai
    Default : Yes
    Forced : No

    Text #4
    ID : 6
    Format : VobSub
    Muxing mode : zlib
    Codec ID : S_VOBSUB
    Codec ID/Info : Picture based subtitle format used on DVDs
    Duration : 1 h 51 min
    Bit rate : 14.3 kb/s
    Count of elements : 1584
    Stream size : 11.4 MiB (0%)
    Title : Sub English 1080p
    Language : English
    Default : No
    Forced : No

    Text #5
    ID : 7
    Format : UTF-8
    Codec ID : S_TEXT/UTF8
    Codec ID/Info : UTF-8 Plain Text
    Duration : 1 h 51 min
    Bit rate : 71 b/s
    Count of elements : 1584
    Stream size : 58.0 KiB (0%)
    Title : Sub English SRT
    Language : English
    Default : No
    Forced : No

    Text #6
    ID : 8
    Format : PGS
    Muxing mode : zlib
    Codec ID : S_HDMV/PGS
    Codec ID/Info : Picture based subtitle format used on BDs/HD-DVDs
    Duration : 1 h 51 min
    Bit rate : 47.3 kb/s
    Count of elements : 3168
    Stream size : 37.7 MiB (1%)
    Title : Sub English PGS
    Language : English
    Default : No
    Forced : No





    http://www.filecondo.com/dl.php?f=p047191Ky4L2

  2. #2
    Senior Member
    สมัครเมื่อ
    Jul 2013
    โพสต์
    1,416
    Thanks
    0
    Thanked 0 Times in 0 Posts
    ขอบคุรครับ

+ ตอบกลับกระทู้

ข้อมูลกระทู้

Users Browsing this Thread

ในขณะนี้มี 1 ท่านดูกระทู้อยู่. (0 สมาชิกและ 1 ผู้เยี่ยมชม)

     

กฎการโพสต์ข้อความ

  • ท่าน ไม่สามารถ ตั้งกระทู้ใหม่ได้
  • ท่าน ไม่สามารถ ตอบกระทู้ได้
  • ท่าน ไม่สามารถ แนบไฟล์ได้
  • ท่าน ไม่สามารถ แก้ไขข้อความโพสต์ได้
  • BB code สถานะ เปิด
  • Smilies สถานะ เปิด
  • [IMG] สถานะ เปิด
  • HTML สถานะ ปิด