+ ตอบกลับกระทู้
สรุปผลการค้นหา 1 ถึง 4 จากทั้งหมด 4
  1. #1
    Administrators รูปส่วนตัว Duckload.us
    สมัครเมื่อ
    Dec 2010
    โพสต์
    120,605
    Thanks
    7
    Thanked 125,977 Times in 56,305 Posts

    Angry [ฝรั่ง] • [ซอมบี้] • Little Monsters (2019) ซอมบี้มาแล้วงับ • [เสียงไทย AC-3 + อังกฤษ AC-3 5.1] • [บรรยายอังกฤษ + Srt,PGS คมชัด] • [From Blu-Ray Master 1080p]



    จากตัวอย่างที่สร้างกระแสความฮือฮาในโลกออนไลน์ ของหนังซอมบี้ ที่มีพี่เลี้ยง และ เด็กน้อย ที่จะมาเรียกเสียงฮาแบบที่ไม่เคยเจอจากที่ไหนมาก่อน

    ฮาป่วงกับภาพยนตร์เรื่อง “Little Monsters ซอมบี้มาแล้วงับ” เรื่องราวของครูพี่เลี้ยง “แคโรไลน์” ที่ต้องพาเด็กนักเรียนชั้นอนุบาลมาทัศนศึกษา ณ ฟาร์มแห่งหนึ่ง แต่หารรู้ไม่ว่าที่ฟาร์มแห่งนั้นกำลังมีการแพร่ระบาด ของเชื้อไวรัสซอมบี้ ครูแคโรไลน์จึงต้องสวมวิญญาณอาจารย์แม่ปกป้องเล่านัก เรียนไม่ให้ตกอยู่ในความหวาดกลัว เธอจึงเปลี่ยนสถานการณ์ที่เลวร้ายให้กลายเป็นความฮา ท่ามกลางการเอาชีวิตรอด พร้อมเทคนิคการร้องเพลงเข้าค่ายสมัยเด็ก ๆ ที่ยังสามารถนำมาใช้ได้ในสถานการณ์สุดคับขัน “หากว่าเรากำลังสบายจงปรบมือพลัน”
    คะแนนจากนักวิจารณ์และคุณผู้ชม


    Code:
    General
    Unique ID                      : 8115220025320120672163861624076243616 (0x61AEF3D0B3AE4E8AA4135E810E212A0)
    Complete name                  : Little Monsters (2019) ซอมบี้มาแล้วงับ.mkv
    Format                         : Matroska
    Format version                 : Version 4
    File size                      : 8.20 GiB
    Duration                       : 1 h 34 min
    Overall bit rate               : 12.5 Mb/s
    Movie name                     : Little Monsters 2019 By Thanet Promdom (Beer)
    Encoded date                   : UTC 2020-10-28 15:51:29
    Writing application            : mkvmerge v47.0.0 ('Black Flag') 64-bit
    Writing library                : libebml v1.3.10 + libmatroska v1.5.2
    
    Video
    ID                             : 1
    Format                         : AVC
    Format/Info                    : Advanced Video Codec
    Format profile                 : [email protected]
    Format settings                : CABAC / 4 Ref Frames
    Format settings, CABAC         : Yes
    Format settings, Reference fra : 4 frames
    Codec ID                       : V_MPEG4/ISO/AVC
    Duration                       : 1 h 33 min
    Bit rate                       : 11.6 Mb/s
    Width                          : 1 920 pixels
    Height                         : 804 pixels
    Display aspect ratio           : 2.40:1
    Frame rate mode                : Constant
    Frame rate                     : 23.976 (24000/1001) FPS
    Color space                    : YUV
    Chroma subsampling             : 4:2:0
    Bit depth                      : 8 bits
    Scan type                      : Progressive
    Bits/(Pixel*Frame)             : 0.313
    Stream size                    : 7.59 GiB (93%)
    Title                          : Little Monsters 2019 By Thanet Promdom (Beer)
    Writing library                : x264 core 158 r2984+49 6932f4a t_mod_New [[email protected] X86_64]
    Encoding settings              : cabac=1 / ref=4 / deblock=1:-3:-3 / analyse=0x3:0x133 / me=umh / subme=10 / psy=1 / fade_compensate=0.00 / psy_rd=1.00:0.00 / mixed_ref=1 / me_range=32 / chroma_me=1 / trellis=2 / 8x8dct=1 / cqm=0 / deadzone=21,11 / fast_pskip=0 / chroma_qp_offset=-2 / threads=25 / lookahead_threads=4 / sliced_threads=0 / nr=0 / decimate=0 / interlaced=0 / bluray_compat=0 / constrained_intra=0 / fgo=0 / bframes=8 / b_pyramid=2 / b_adapt=2 / b_bias=0 / direct=3 / weightb=1 / open_gop=0 / weightp=2 / keyint=250 / keyint_min=23 / scenecut=40 / intra_refresh=0 / rc=crf / mbtree=0 / crf=17.0000 / qcomp=0.65 / qpmin=0:0:0 / qpmax=69:69:69 / qpstep=4 / ip_ratio=1.30 / pb_ratio=1.20 / aq=3:0.85 / aq-sensitivity=10.00 / aq-factor=1.00:1.00:1.00 / aq2=0 / aq3=0
    Language                       : English
    Default                        : Yes
    Forced                         : No
    
    Audio #1
    ID                             : 2
    Format                         : AC-3
    Format/Info                    : Audio Coding 3
    Commercial name                : Dolby Digital
    Codec ID                       : A_AC3
    Duration                       : 1 h 33 min
    Bit rate mode                  : Constant
    Bit rate                       : 224 kb/s
    Channel(s)                     : 2 channels
    Channel layout                 : L R
    Sampling rate                  : 48.0 kHz
    Frame rate                     : 31.250 FPS (1536 SPF)
    Compression mode               : Lossy
    Stream size                    : 150 MiB (2%)
    Title                          : Thai AC-3
    Language                       : Thai
    Service kind                   : Complete Main
    Default                        : Yes
    Forced                         : No
    
    Audio #2
    ID                             : 3
    Format                         : AC-3
    Format/Info                    : Audio Coding 3
    Commercial name                : Dolby Digital
    Codec ID                       : A_AC3
    Duration                       : 1 h 34 min
    Bit rate mode                  : Constant
    Bit rate                       : 640 kb/s
    Channel(s)                     : 6 channels
    Channel layout                 : L R C LFE Ls Rs
    Sampling rate                  : 48.0 kHz
    Frame rate                     : 31.250 FPS (1536 SPF)
    Compression mode               : Lossy
    Stream size                    : 431 MiB (5%)
    Title                          : Eng AC-3
    Language                       : English
    Service kind                   : Complete Main
    Default                        : No
    Forced                         : No
    
    Text #1
    ID                             : 4
    Format                         : PGS
    Muxing mode                    : zlib
    Codec ID                       : S_HDMV/PGS
    Codec ID/Info                  : Picture based subtitle format used on BDs/HD-DVDs
    Duration                       : 1 h 33 min
    Bit rate                       : 52.3 kb/s
    Count of elements              : 3224
    Stream size                    : 35.0 MiB (0%)
    Title                          : Eng PGS
    Language                       : English
    Default                        : Yes
    Forced                         : No
    
    Text #2
    ID                             : 5
    Format                         : PGS
    Muxing mode                    : zlib
    Codec ID                       : S_HDMV/PGS
    Codec ID/Info                  : Picture based subtitle format used on BDs/HD-DVDs
    Duration                       : 1 h 33 min
    Bit rate                       : 52.3 kb/s
    Count of elements              : 3224
    Stream size                    : 35.0 MiB (0%)
    Title                          : Eng PGS Out
    Language                       : English
    Default                        : No
    Forced                         : No
    
    Text #3
    ID                             : 6
    Format                         : UTF-8
    Codec ID                       : S_TEXT/UTF8
    Codec ID/Info                  : UTF-8 Plain Text
    Duration                       : 1 h 33 min
    Bit rate                       : 76 b/s
    Count of elements              : 1612
    Stream size                    : 52.3 KiB (0%)
    Title                          : Eng Srt
    Language                       : English
    Default                        : No
    Forced                         : No
    
    Menu
    00:00:00.000                   : en:00:00:00.000
    00:07:27.572                   : en:00:07:27.572
    00:15:08.950                   : en:00:15:08.950
    00:23:21.150                   : en:00:23:21.150
    00:32:29.698                   : en:00:32:29.698
    00:38:50.662                   : en:00:38:50.662
    00:45:57.588                   : en:00:45:57.588
    00:53:14.316                   : en:00:53:14.316
    00:59:28.315                   : en:00:59:28.315
    01:08:30.773                   : en:01:08:30.773
    01:18:10.811                   : en:01:18:10.811
    01:25:47.352                   : en:01:25:47.352
























    8.2 GB
    http://cornfile.com/8yfivd4fb1zp

  2. The Following 3 Users Say Thank You to Duckload.us For This Useful Post:

    bigbang06 (11-03-2020), LaLaLaLove (11-05-2020), Wesker_TOT (10-30-2020)

  3. #2
    Senior Member
    สมัครเมื่อ
    Jul 2013
    โพสต์
    1,402
    Thanks
    0
    Thanked 0 Times in 0 Posts
    ขอบคุณครับผม

  4. #3
    Senior Member
    สมัครเมื่อ
    Dec 2013
    โพสต์
    2,490
    Thanks
    4,415
    Thanked 0 Times in 0 Posts
    ขอบคุณนะครับ...

  5. #4
    Senior Member
    สมัครเมื่อ
    Jul 2012
    โพสต์
    7,190
    Thanks
    0
    Thanked 0 Times in 0 Posts
    ขอบคุณมากจ้า

+ ตอบกลับกระทู้

ข้อมูลกระทู้

Users Browsing this Thread

ในขณะนี้มี 1 ท่านดูกระทู้อยู่. (0 สมาชิกและ 1 ผู้เยี่ยมชม)

     

กฎการโพสต์ข้อความ

  • ท่าน ไม่สามารถ ตั้งกระทู้ใหม่ได้
  • ท่าน ไม่สามารถ ตอบกระทู้ได้
  • ท่าน ไม่สามารถ แนบไฟล์ได้
  • ท่าน ไม่สามารถ แก้ไขข้อความโพสต์ได้
  • BB code สถานะ เปิด
  • Smilies สถานะ เปิด
  • [IMG] สถานะ เปิด
  • HTML สถานะ ปิด