+ ตอบกลับกระทู้
สรุปผลการค้นหา 1 ถึง 2 จากทั้งหมด 2
  1. #1
    Administrators รูปส่วนตัว Duckload.us
    สมัครเมื่อ
    Dec 2010
    โพสต์
    123,797
    Thanks
    7
    Thanked 128,828 Times in 57,305 Posts

    Lightbulb [ญี่ปุ่น]-Demon Slayer: Kimetsu No Yaiba (2019) / ดาบพิฆาตอสูร [Season 1, 26 Episode(End), mkv from BD Full Bitrate]-Remux.Dolby Atmos.2160p. [Master]-[พากย์ไทย บรรยายไทย]



    เ รื่ อ ง ย่ อ / S y n o p s i s
    เรื่องราวในยุคไทโช (1912-1926) ทันจิโร่เด็กหนุ่มขายถ่านที่แสนอ่อนโยน วันหนึ่งครอบครัวของเขาถูกอสูรฆ่าตาย ส่วนเนซึโกะ น้องสาวของเขาก็โดนเปลี่ยนเป็นอสูร ในตอนนั้นเองนักล่าอสูรนามว่า โทมิโอกะ งิยู ก็ได้ปรากฏตัวขึ้นและคิดจะกำจัดเนซึโกะ ทว่าเขาก็ต้องประหลาดใจที่เนซึโกะกับทันจิโร่กลับปกป ้องกันและกัน ยิ่งได้เห็นฝีมือการต่อสู้ของทันจิโร่ทำให้ งิยูตัดสินใจส่งตัวพวกเขาไปให้สหายเก่าแก่ของตนเองช่ วยฝึกฝนให้ นั่นจึงเป็นจุดเริ่มต้นการเป็นนักล่าอสูรของทันจิโร่ เพื่อช่วยน้องสาวให้กลับมาเป็นมนุษย์อีกครั้งและเพื่ อตามล่าอสูรที่ฆ่าครอบครัวของเขา...

    ข้อมูลหนัง:IMDb Info: https://www.imdb.com/title/tt9335498/
    Rating: 8.7/10 (18,245 votes)
    Genres: Animation, Action, Fantasy
    Runtime: 25min/Epsode

    ภาพ: 1080p Widescreen 1.85:1
    เสียง: ญี่ปุ่น 2.0 LPCM, ไทย 2.0 Doby Digital
    ซับ: ไทย
    Media Info:
    General
    Complete name : Kimetsu.No.Yaiba.2019.S1e01.AVC.1080p.mkv
    Format : Matroska
    Format version : Version 4
    File size : 6.25 GiB
    Duration : 23 min 41 s
    Overall bit rate mode : Variable
    Overall bit rate : 37.8 Mb/s
    Encoded date : UTC 2020-10-25 15:39:29
    Writing application : mkvmerge v51.0.0 ('I Wish') 64-bit
    Writing library : libebml v1.4.0 + libmatroska v1.6.2

    Video
    ID : 1
    Format : AVC
    Format/Info : Advanced Video Codec
    Format profile : [email protected]
    Format settings : CABAC / 4 Ref Frames
    Format settings, CABAC : Yes
    Format settings, RefFrames : 4 frames
    Format settings, GOP : M=3, N=12
    Codec ID : V_MPEG4/ISO/AVC
    Duration : 23 min 41 s
    Bit rate mode : Variable
    Bit rate : 35.0 Mb/s
    Maximum bit rate : 39.0 Mb/s
    Width : 1 920 pixels
    Height : 1 080 pixels
    Display aspect ratio : 16:9
    Frame rate mode : Constant
    Frame rate : 23.976 (24000/1001) FPS
    Color space : YUV
    Chroma subsampling : 4:2:0
    Bit depth : 8 bits
    Scan type : Progressive
    Bits/(Pixel*Frame) : 0.704
    Stream size : 5.79 GiB (93%)
    Default : Yes
    Forced : No

    Audio #1
    ID : 2
    Format : PCM
    Format settings : Little / Signed
    Codec ID : A_PCM/INT/LIT
    Duration : 23 min 41 s
    Bit rate mode : Constant
    Bit rate : 2 304 kb/s
    Channel(s) : 2 channels
    Sampling rate : 48.0 kHz
    Frame rate : 200.000 FPS (240 SPF)
    Bit depth : 24 bits
    Stream size : 390 MiB (6%)
    Language : Japanese
    Default : Yes
    Forced : No

    Audio #2
    ID : 3
    Format : AC-3
    Format/Info : Audio Coding 3
    Commercial name : Dolby Digital
    Codec ID : A_AC3
    Duration : 23 min 39 s
    Bit rate mode : Constant
    Bit rate : 448 kb/s
    Channel(s) : 2 channels
    Channel layout : L R
    Sampling rate : 48.0 kHz
    Frame rate : 31.250 FPS (1536 SPF)
    Bit depth : 16 bits
    Compression mode : Lossy
    Delay relative to video : 26 ms
    Stream size : 75.8 MiB (1%)
    Title : Thai -9dB -230ms
    Language : Thai
    Service kind : Complete Main
    Default : No
    Forced : No

    Text
    ID : 4
    Format : PGS
    Muxing mode : zlib
    Codec ID : S_HDMV/PGS
    Codec ID/Info : Picture based subtitle format used on BDs/HD-DVDs
    Duration : 23 min 13 s
    Bit rate : 36.1 kb/s
    Count of elements : 634
    Stream size : 5.99 MiB (0%)
    Language : Thai
    Default : Yes
    Forced : No



    1
    http://www.filecondo.com/dl.php?f=90ac831KCjrJ
    2
    http://www.filecondo.com/dl.php?f=jad6921KCjtc
    3
    http://www.filecondo.com/dl.php?f=ec23401KCjuP
    4
    http://www.filecondo.com/dl.php?f=pe7f7b1KCjvO
    5
    http://www.filecondo.com/dl.php?f=Uf773d1KCjAf
    6
    http://www.filecondo.com/dl.php?f=R4d9851KCjF1
    7
    http://www.filecondo.com/dl.php?f=Z51f5c1KCjIm
    8
    http://www.filecondo.com/dl.php?f=B0578b1KCjK4
    9
    http://www.filecondo.com/dl.php?f=T937161KCjKZ
    10
    http://www.filecondo.com/dl.php?f=X87e9d1KCjLX
    11
    http://www.filecondo.com/dl.php?f=4d165e1KCkSL
    12
    http://www.filecondo.com/dl.php?f=93c6451KCkWj
    13
    http://www.filecondo.com/dl.php?f=U07e161KCl0w
    14
    http://www.filecondo.com/dl.php?f=Za38e61KCl79
    15
    http://www.filecondo.com/dl.php?f=5ce0781KCleR
    16
    http://www.filecondo.com/dl.php?f=U72dd01KCljw
    17
    http://www.filecondo.com/dl.php?f=Sda61d1KClnS
    18
    http://www.filecondo.com/dl.php?f=175d8f1KClrJ
    19
    http://www.filecondo.com/dl.php?f=27b95a1KClvX
    20
    http://www.filecondo.com/dl.php?f=Jadb5c1KClAF
    21
    http://www.filecondo.com/dl.php?f=f8c8541KClDv
    22
    http://www.filecondo.com/dl.php?f=p07fb41KClF5
    23
    http://www.filecondo.com/dl.php?f=s515471KClGu
    24
    http://www.filecondo.com/dl.php?f=Ca01c11KClIX
    25
    http://www.filecondo.com/dl.php?f=8dad3c1KClKG
    26
    http://www.filecondo.com/dl.php?f=tfa2021KClLP

  2. The Following User Says Thank You to Duckload.us For This Useful Post:

    iayamachi (01-23-2021)

  3. #2
    Senior Member
    สมัครเมื่อ
    Jul 2013
    โพสต์
    1,787
    Thanks
    0
    Thanked 0 Times in 0 Posts
    ขอบคุณครับ

+ ตอบกลับกระทู้

ข้อมูลกระทู้

Users Browsing this Thread

ในขณะนี้มี 1 ท่านดูกระทู้อยู่. (0 สมาชิกและ 1 ผู้เยี่ยมชม)

     

กฎการโพสต์ข้อความ

  • ท่าน ไม่สามารถ ตั้งกระทู้ใหม่ได้
  • ท่าน ไม่สามารถ ตอบกระทู้ได้
  • ท่าน ไม่สามารถ แนบไฟล์ได้
  • ท่าน ไม่สามารถ แก้ไขข้อความโพสต์ได้
  • BB code สถานะ เปิด
  • Smilies สถานะ เปิด
  • [IMG] สถานะ เปิด
  • HTML สถานะ ปิด