+ ตอบกลับกระทู้
สรุปผลการค้นหา 1 ถึง 2 จากทั้งหมด 2
  1. #1
    Administrators รูปส่วนตัว Duckload.us
    สมัครเมื่อ
    Dec 2010
    โพสต์
    122,403
    Thanks
    7
    Thanked 127,697 Times in 56,918 Posts

    Angry [ฝรั่ง]-[60 FPS] The Exorcist (1973) หมอผี เอ็กซอร์ซิสต์ - [พากย์ไทย+อังกฤษ] [บรรยายไทย+อังกฤษ] 1080p.BDRip.x264.60fps




    เรแกน เด็กสาวที่จู่ๆโดนวิญญาณชั่วร้ายสิง แม่ของเธอคิดว่าเธอไม่สบาย เป็นโรคอะไรสักอย่าง ยิ่งเวลาผ่านไป ร่างกายของเรแกนยิ่งมีแผลเหวอะหวะทั่วร่างกาย สุดท้ายต้องทำพิธีไล่ผี โดยตามคุณพ่อเมอร์ริน บาทหลวงที่ไล่ผีมาหลายครั้งแล้ว และคุณพ่อเดเมียน คาร์ริสต้า


    Duration : 2 h 12 min
    Overall bit rate : 25.6 Mb/s
    Encoded date : UTC 2020-11-02 12:29:20
    Writing application : mkvmerge v51.0.0 ('I Wish') 64-bit
    Writing library : libebml v1.4.0 + libmatroska v1.6.2
    Cover : Yes
    Attachments : cover

    Video
    ID : 1
    Format : AVC
    Format/Info : Advanced Video Codec
    Format profile : [email protected]
    Format settings : CABAC / 9 Ref Frames
    Format settings, CABAC : Yes
    Format settings, Reference frames : 9 frames
    Codec ID : V_MPEG4/ISO/AVC
    Duration : 2 h 12 min
    Bit rate : 25.0 Mb/s
    Width : 1 920 pixels
    Height : 1 080 pixels
    Display aspect ratio : 16:9
    Frame rate mode : Constant
    Frame rate : 59.940 (60000/1001) FPS
    Color space : YUV
    Chroma subsampling : 4:2:0
    Bit depth : 8 bits
    Scan type : Progressive
    Bits/(Pixel*Frame) : 0.201
    Stream size : 23.1 GiB (97%)
    Language : English
    Default : Yes
    Forced : No

    Audio #1
    ID : 2
    Format : AC-3
    Format/Info : Audio Coding 3
    Commercial name : Dolby Digital
    Codec ID : A_AC3
    Duration : 2 h 12 min
    Bit rate mode : Constant
    Bit rate : 448 kb/s
    Channel(s) : 6 channels
    Channel layout : L R C LFE Ls Rs
    Sampling rate : 48.0 kHz
    Frame rate : 31.250 FPS (1536 SPF)
    Compression mode : Lossy
    Stream size : 424 MiB (2%)
    Language : English
    Service kind : Complete Main
    Default : No
    Forced : Yes

    Audio #2
    ID : 3
    Format : AC-3
    Format/Info : Audio Coding 3
    Commercial name : Dolby Digital
    Codec ID : A_AC3
    Duration : 2 h 12 min
    Bit rate mode : Constant
    Bit rate : 192 kb/s
    Channel(s) : 2 channels
    Channel layout : L R
    Sampling rate : 48.0 kHz
    Frame rate : 31.250 FPS (1536 SPF)
    Compression mode : Lossy
    Delay relative to video : 2 s 700 ms
    Stream size : 181 MiB (1%)
    Language : Thai
    Service kind : Complete Main
    Default : Yes
    Forced : No

    Text #1
    ID : 4
    Format : PGS
    Muxing mode : zlib
    Codec ID : S_HDMV/PGS
    Codec ID/Info : Picture based subtitle format used on BDs/HD-DVDs
    Duration : 2 h 10 min
    Bit rate : 23.0 kb/s
    Count of elements : 2984
    Stream size : 21.4 MiB (0%)
    Language : English
    Default : Yes
    Forced : No

    Text #2
    ID : 5
    Format : PGS
    Muxing mode : zlib
    Codec ID : S_HDMV/PGS
    Codec ID/Info : Picture based subtitle format used on BDs/HD-DVDs
    Duration : 2 h 7 min
    Bit rate : 17.5 kb/s
    Count of elements : 2590
    Stream size : 15.9 MiB (0%)
    Language : Thai
    Default : No
    Forced : No



    http://cornfile.com/5dkxbooezlzo

  2. #2
    Senior Member
    สมัครเมื่อ
    Jun 2014
    โพสต์
    5,217
    Thanks
    0
    Thanked 0 Times in 0 Posts
    ขอบคุณครับ

+ ตอบกลับกระทู้

ข้อมูลกระทู้

Users Browsing this Thread

ในขณะนี้มี 1 ท่านดูกระทู้อยู่. (0 สมาชิกและ 1 ผู้เยี่ยมชม)

     

กฎการโพสต์ข้อความ

  • ท่าน ไม่สามารถ ตั้งกระทู้ใหม่ได้
  • ท่าน ไม่สามารถ ตอบกระทู้ได้
  • ท่าน ไม่สามารถ แนบไฟล์ได้
  • ท่าน ไม่สามารถ แก้ไขข้อความโพสต์ได้
  • BB code สถานะ เปิด
  • Smilies สถานะ เปิด
  • [IMG] สถานะ เปิด
  • HTML สถานะ ปิด