+ ตอบกลับกระทู้
สรุปผลการค้นหา 1 ถึง 3 จากทั้งหมด 3
  1. #1
    Administrators รูปส่วนตัว Duckload.us
    สมัครเมื่อ
    Dec 2010
    โพสต์
    120,902
    Thanks
    7
    Thanked 126,379 Times in 56,435 Posts

    Lightbulb [ฝรั่ง]-SEAL TEAM สุดยอดหน่วยซีลภารกิจเดือด Season 1 [เสียง:อังกฤษ-ไทย AC-3 ][บรรยาย: ไทย PGS-อังกฤษ]-WEB-DL.H.264.1080p. [From HD-TV]-[พากย์ไทย บรรยายไทย]




    หน่วยซีล เป็นหน่วยกำลังทหารที่โดดเด่น และปฏิบัติภารกิจได้อย่างเฉียบขาด แต่ละคนมีความสามารถเฉพาะตัวที่ดีเยี่ยม และที่สำคัญกว่าสิ่งอื่นใด ในการปฏิบัติภารกิจ คือการวางแผนที่ดีรวมถึงการทำงานร่วมกันเป็นทีมได้อย ่างเข้าขาและรู้ใจ ติดตามชีวิตการทำงาน การฝึกฝนและการปฎิบัติงานของพวกเขา

    Video
    ID : 1
    Format : AVC
    Format/Info : Advanced Video Codec
    Format profile : [email protected]
    Format settings : CABAC / 4 Ref Frames
    Format settings, CABAC : Yes
    Format settings, Reference fra : 4 frames
    Codec ID : V_MPEG4/ISO/AVC
    Duration : 43 min 48 s
    Bit rate mode : Variable
    Bit rate : 10.4 Mb/s
    Maximum bit rate : 15.0 Mb/s
    Width : 1 920 pixels
    Height : 1 080 pixels
    Display aspect ratio : 16:9
    Frame rate mode : Constant
    Frame rate : 23.976 (24000/1001) FPS
    Color space : YUV
    Chroma subsampling : 4:2:0
    Bit depth : 8 bits
    Scan type : Progressive
    Bits/(Pixel*Frame) : 0.210
    Stream size : 3.19 GiB (90%)
    Default : Yes
    Forced : No
    Color range : Limited
    Color primaries : BT.709
    Transfer characteristics : BT.709
    Matrix coefficients : BT.709

    Audio #1
    ID : 2
    Format : AC-3
    Format/Info : Audio Coding 3
    Commercial name : Dolby Digital
    Codec ID : A_AC3
    Duration : 43 min 48 s
    Bit rate mode : Constant
    Bit rate : 448 kb/s
    Channel(s) : 2 channels
    Channel layout : L R
    Sampling rate : 48.0 kHz
    Frame rate : 31.250 FPS (1536 SPF)
    Compression mode : Lossy
    Delay relative to video : 8 ms
    Stream size : 140 MiB (4%)
    Title : [AC-3-Thai]
    Language : Thai
    Service kind : Complete Main
    Default : Yes
    Forced : No

    Audio #2
    ID : 3
    Format : E-AC-3
    Format/Info : Enhanced AC-3
    Commercial name : Dolby Digital Plus
    Codec ID : A_EAC3
    Duration : 43 min 48 s
    Bit rate mode : Constant
    Bit rate : 640 kb/s
    Channel(s) : 6 channels
    Channel layout : L R C LFE Ls Rs
    Sampling rate : 48.0 kHz
    Frame rate : 31.250 FPS (1536 SPF)
    Compression mode : Lossy
    Stream size : 201 MiB (6%)
    Title : [AC-3-English]
    Language : English
    Service kind : Complete Main
    Default : No
    Forced : No

    Text #1
    ID : 4
    Format : PGS
    Muxing mode : zlib
    Codec ID : S_HDMV/PGS
    Codec ID/Info : Picture based subtitle format used on BDs/HD-DVDs
    Duration : 43 min 8 s
    Bit rate : 53.7 kb/s
    Count of elements : 1298
    Stream size : 16.6 MiB (0%)
    Title : [Cordia New]
    Language : Thai
    Default : Yes
    Forced : No

    Text #2
    ID : 5
    Format : PGS
    Muxing mode : zlib
    Codec ID : S_HDMV/PGS
    Codec ID/Info : Picture based subtitle format used on BDs/HD-DVDs
    Duration : 43 min 8 s
    Bit rate : 62.1 kb/s
    Count of elements : 1298
    Stream size : 19.2 MiB (1%)
    Title : [EucrosiaUPC PGS]
    Language : Thai
    Default : No
    Forced : No

    Text #3
    ID : 6
    Format : PGS
    Muxing mode : zlib
    Codec ID : S_HDMV/PGS
    Codec ID/Info : Picture based subtitle format used on BDs/HD-DVDs
    Duration : 43 min 8 s
    Bit rate : 62.3 kb/s
    Count of elements : 1298
    Stream size : 19.2 MiB (1%)
    Title : [TH Sarabun New PGS]
    Language : Thai
    Default : No
    Forced : No

    Text #4
    ID : 7
    Format : UTF-8
    Codec ID : S_TEXT/UTF8
    Codec ID/Info : UTF-8 Plain Text
    Duration : 43 min 1 s
    Bit rate : 80 b/s
    Count of elements : 802
    Stream size : 25.3 KiB (0%)
    Title : SRT
    Language : English
    Default : No
    Forced : No









    1
    http://www.filecondo.com/dl.php?f=5892511KEiP2
    2
    http://www.filecondo.com/dl.php?f=45c49a1KEiQM
    3
    http://www.filecondo.com/dl.php?f=l947781KEiRZ
    4
    http://www.filecondo.com/dl.php?f=Uae68d1KEinp
    5
    http://www.filecondo.com/dl.php?f=N078de1KEipE
    6
    http://www.filecondo.com/dl.php?f=tdfd551KEiqQ
    7
    http://www.filecondo.com/dl.php?f=98b84a1KEisj
    8
    http://www.filecondo.com/dl.php?f=Qff45a1KEitd
    9
    http://www.filecondo.com/dl.php?f=Xeebd31KEiub
    10
    http://www.filecondo.com/dl.php?f=Zc87f81KEivd
    11
    http://www.filecondo.com/dl.php?f=Tf53671KEiw7
    12
    http://www.filecondo.com/dl.php?f=Rb84061KEix5
    13
    http://www.filecondo.com/dl.php?f=5f84151KEiy0
    14
    http://www.filecondo.com/dl.php?f=b9eebc1KEiz2
    15
    http://www.filecondo.com/dl.php?f=y42e0d1KEiAx
    16
    http://www.filecondo.com/dl.php?f=Vaa6031KEiC5
    17
    http://www.filecondo.com/dl.php?f=e4fb451KEiDN
    18
    http://www.filecondo.com/dl.php?f=f6ecc51KEiFU
    19
    http://www.filecondo.com/dl.php?f=racbfc1KEiIq
    20
    http://www.filecondo.com/dl.php?f=L6ebf61KEiJB
    21
    http://www.filecondo.com/dl.php?f=ge16841KEiL8
    22
    http://www.filecondo.com/dl.php?f=qa3d5c1KEiMy

  2. #2
    Senior Member
    สมัครเมื่อ
    May 2012
    โพสต์
    825
    Thanks
    0
    Thanked 0 Times in 0 Posts
    ขอบคุณครับ

  3. #3
    Senior Member
    สมัครเมื่อ
    Aug 2012
    โพสต์
    191
    Thanks
    0
    Thanked 0 Times in 0 Posts
    ขอบคุณมากครับ

+ ตอบกลับกระทู้

ข้อมูลกระทู้

Users Browsing this Thread

ในขณะนี้มี 1 ท่านดูกระทู้อยู่. (0 สมาชิกและ 1 ผู้เยี่ยมชม)

     

กฎการโพสต์ข้อความ

  • ท่าน ไม่สามารถ ตั้งกระทู้ใหม่ได้
  • ท่าน ไม่สามารถ ตอบกระทู้ได้
  • ท่าน ไม่สามารถ แนบไฟล์ได้
  • ท่าน ไม่สามารถ แก้ไขข้อความโพสต์ได้
  • BB code สถานะ เปิด
  • Smilies สถานะ เปิด
  • [IMG] สถานะ เปิด
  • HTML สถานะ ปิด