+ ตอบกลับกระทู้
สรุปผลการค้นหา 1 ถึง 2 จากทั้งหมด 2
  1. #1
    Administrators รูปส่วนตัว Duckload.us
    สมัครเมื่อ
    Dec 2010
    โพสต์
    120,902
    Thanks
    7
    Thanked 126,380 Times in 56,435 Posts

    Lightbulb [ไต้หวัน]-[Life Plan A and B เส้นทางรัก หัวใจคู่ขนาน Yu li Yan, Rainie Yang Ep.1-6/End]-WEB-DL.H.264.1080p. [From HD-TV]-[Soundtrack บรรยายไทย]




    ซีรี่ย์ไต้หวัน: Life Plan A and B
    ชื่อภาษาไทย: เส้นทางรัก หัวใจคู่ขนาน
    ประเภท: Drama
    จำนวนตอน: 6
    นำแสดงโดย: Yu li Yan, Rainie Yang
    ผู้กำกับ: Sin Hyeon Chang
    เขียนบทโดย: Sa Moo El, Son Eun Hye
    ออกอากาศทางสถานีโทรทัศน์: GTV
    เริ่มออกอากาศ: 7 ตุลาคม 2016 - 11 พฤศจิกายน 2016
    เวลาออกอากาศ: ทุกวันศุกร์ เวลา 9:15 - 11:00 น.
    นักแสดง
    Rainie Yang as Zheng Ru Wei
    Yan Yu Lin as Tang You Yan
    Johnny Lu as Rong Yi Chao
    Wu Andy as Zhao Hui
    Lin Diane as Tang You Shan
    Zhang Fu Jian as Tang De Gang
    Sysopsis: แม้ว่าทั้งสองจะไม่ได้รวยมากนัก แต่ก็ใช้ชีวิตแบบคนธรรมดาๆ ดูแลซึ่งกันและกันเป็นอย่างดี แต่แล้วก็โอกาสก็เข้ามา เมื่อนางเอกได้รับเลือกให้ไปทำงานที่เซี่ยงไฮ้ พระเอกเองก็พยายามหางานที่เซี่ยงไฮ้ เพื่อจะได้ไปเริ่มต้นชีวิตใหม่ด้วยกัน แต่แล้วก่อนวันเดินทาง พ่อพระเอกเกิดโดนรถชน ด้วยความที่บ้านพระเอกเหลือแค่พ่อกับแม่ พระเอกจึงตัดสินใจทิ้งโอกาสในการไปเซี่ยงไฮ้ นางเอกกลายเป็นคนตกที่นั่งลำบาก เมื่อต้องตัดสินใจว่าจะไปหรืออยู่ดี ตัวเลือกA คือไปเซี่ยงไฮ้ ตัวเลือกB คืออยู่ไต้หวันต่อ หนังเรื่องนี้ดำเนินทั้งตัวเลือกA และ B ไปพร้อมๆกัน โดยที่หนังจะยังไม่บอกว่าสรุปแล้ว นางเอกเลือกตัวเลือกไหนกันแน่ ติดตามชมกันได้ใน Life Plan A and B เส้นทางรัก หัวใจคู่ขนาน
    Credit: franky

    General
    Unique ID : 257456806100139426921728024204041804063 (0xC1B06091D8F3673EEB5C32F83DD0591F)
    Complete name : L:Life Plan A and B เส้นทางรัก หัวใจคู่ขนานLife.Plan.A.And.B.2016.S01E05.1080p.NF .WEB-DL.DDP2.0.x264.mkv
    Format : Matroska
    Format version : Version 4
    File size : 1.76 GiB
    Duration : 1 h 25 min
    Overall bit rate mode : Variable
    Overall bit rate : 2 964 kb/s
    Encoded date : UTC 2019-12-14 06:14:23
    Writing application : mkvmerge v19.0.0 ('Brave Captain') 64-bit
    Writing library : libebml v1.3.5 + libmatroska v1.4.8

    Video
    ID : 1
    Format : AVC
    Format/Info : Advanced Video Codec
    Format profile : [email protected]
    Format settings : CABAC / 4 Ref Frames
    Format settings, CABAC : Yes
    Format settings, Reference fra : 4 frames
    Codec ID : V_MPEG4/ISO/AVC
    Duration : 1 h 25 min
    Bit rate mode : Variable
    Bit rate : 2 826 kb/s
    Maximum bit rate : 20.0 Mb/s
    Width : 1 920 pixels
    Height : 1 080 pixels
    Display aspect ratio : 16:9
    Frame rate mode : Constant
    Frame rate : 29.970 (30000/1001) FPS
    Color space : YUV
    Chroma subsampling : 4:2:0
    Bit depth : 8 bits
    Scan type : Progressive
    Bits/(Pixel*Frame) : 0.045
    Stream size : 1.68 GiB (95%)
    Writing library : x264 core 148
    Encoding settings : cabac=1 / ref=4 / deblock=1:0:0 / analyse=0x3:0x111 / me=umh / subme=10 / psy=1 / psy_rd=1.00:0.00 / mixed_ref=1 / me_range=120 / chroma_me=1 / trellis=2 / 8x8dct=1 / cqm=0 / deadzone=21,11 / fast_pskip=1 / chroma_qp_offset=-2 / threads=8 / lookahead_threads=2 / sliced_threads=0 / nr=0 / decimate=1 / interlaced=0 / bluray_compat=0 / stitchable=1 / constrained_intra=0 / bframes=16 / b_pyramid=2 / b_adapt=2 / b_bias=0 / direct=3 / weightb=1 / open_gop=0 / weightp=2 / keyint=300 / keyint_min=151 / scenecut=0 / intra_refresh=0 / rc_lookahead=250 / rc=crf / mbtree=1 / crf=24.0 / qcomp=0.50 / qpmin=6 / qpmax=51 / qpstep=4 / vbv_maxrate=20000 / vbv_bufsize=25000 / crf_max=0.0 / nal_hrd=vbr / filler=0 / ip_ratio=1.40 / aq=1:0.80
    Default : Yes
    Forced : No

    Audio
    ID : 2
    Format : E-AC-3
    Format/Info : Enhanced AC-3
    Commercial name : Dolby Digital Plus
    Codec ID : A_EAC3
    Duration : 1 h 25 min
    Bit rate mode : Constant
    Bit rate : 128 kb/s
    Channel(s) : 2 channels
    Channel layout : L R
    Sampling rate : 48.0 kHz
    Frame rate : 31.250 FPS (1536 SPF)
    Compression mode : Lossy
    Stream size : 78.0 MiB (4%)
    Language : Chinese
    Service kind : Complete Main
    Default : Yes
    Forced : No

    Text #1
    ID : 3
    Format : UTF-8
    Codec ID : S_TEXT/UTF8
    Codec ID/Info : UTF-8 Plain Text
    Duration : 1 h 22 min
    Bit rate : 108 b/s
    Count of elements : 965
    Stream size : 65.2 KiB (0%)
    Language : Thai
    Default : Yes
    Forced : No

    Text #2
    ID : 4
    Format : PGS
    Muxing mode : zlib
    Codec ID : S_HDMV/PGS
    Codec ID/Info : Picture based subtitle format used on BDs/HD-DVDs
    Duration : 1 h 22 min
    Bit rate : 19.4 kb/s
    Count of elements : 1930
    Stream size : 11.4 MiB (1%)
    Language : Thai
    Default : No
    Forced : No



    1
    http://www.filecondo.com/dl.php?f=Dc32981KEDwy
    2
    http://www.filecondo.com/dl.php?f=Hc125c1KEDCN
    3
    http://www.filecondo.com/dl.php?f=j8c9581KEDIm
    4
    http://www.filecondo.com/dl.php?f=7261051KEDNy
    5
    http://www.filecondo.com/dl.php?f=z9799d1KEDTD
    6
    http://www.filecondo.com/dl.php?f=M221e81KEE0h

  2. #2
    Senior Member
    สมัครเมื่อ
    May 2012
    โพสต์
    825
    Thanks
    0
    Thanked 0 Times in 0 Posts
    ขอบคุณครับ

+ ตอบกลับกระทู้

ข้อมูลกระทู้

Users Browsing this Thread

ในขณะนี้มี 1 ท่านดูกระทู้อยู่. (0 สมาชิกและ 1 ผู้เยี่ยมชม)

     

กฎการโพสต์ข้อความ

  • ท่าน ไม่สามารถ ตั้งกระทู้ใหม่ได้
  • ท่าน ไม่สามารถ ตอบกระทู้ได้
  • ท่าน ไม่สามารถ แนบไฟล์ได้
  • ท่าน ไม่สามารถ แก้ไขข้อความโพสต์ได้
  • BB code สถานะ เปิด
  • Smilies สถานะ เปิด
  • [IMG] สถานะ เปิด
  • HTML สถานะ ปิด