+ ตอบกลับกระทู้
สรุปผลการค้นหา 1 ถึง 4 จากทั้งหมด 4
  1. #1
    Administrators รูปส่วนตัว Duckload.us
    สมัครเมื่อ
    Dec 2010
    โพสต์
    126,387
    Thanks
    7
    Thanked 130,974 Times in 58,015 Posts

    Lightbulb [ฝรั่ง]-SEAL.Team.S03E01.Welcome.to.the.Refuge [เสียง:อังกฤษ-ไทย AC-3 ][บรรยาย:อังกฤษ SRT]-WEB-DL.H.264.1080p. [From HD-TV]-[พากย์ไทย]



    Seal Team สุดยอดหน่วยซีล ปี 3 ในซีซั่นที่นี้ของ SEAL TEAM ในที่สุดทีม Bravo ก็กลับมารวมทีมร่วมกันทำภาระกิจสุดเสี่ยงกันอีกครั้ง ! โดยมี Jason Hayes (David Boreanaz) เป็นผู้นำทีมในการปฏิบัติภารกิจในเซอร์เบีย เพื่อติดตามองค์กรที่เชื่อมโยงกับการทิ้งระเบิดที่ค่ ายทหารอเมริกันหลายแห่ง


    Video
    ID : 1
    Format : AVC
    Format/Info : Advanced Video Codec
    Format profile : [email protected]
    Format settings : CABAC / 4 Ref Frames
    Format settings, CABAC : Yes
    Format settings, Reference fra : 4 frames
    Codec ID : V_MPEG4/ISO/AVC
    Duration : 43 min 16 s
    Bit rate : 10.0 Mb/s
    Width : 1 920 pixels
    Height : 1 080 pixels
    Display aspect ratio : 16:9
    Frame rate mode : Constant
    Frame rate : 24.000 FPS
    Color space : YUV
    Chroma subsampling : 4:2:0
    Bit depth : 8 bits
    Scan type : Progressive
    Bits/(Pixel*Frame) : 0.202
    Stream size : 3.03 GiB (90%)
    Default : Yes
    Forced : No
    Color range : Limited
    Color primaries : BT.709
    Transfer characteristics : BT.709
    Matrix coefficients : BT.709

    Audio #1
    ID : 2
    Format : AC-3
    Format/Info : Audio Coding 3
    Commercial name : Dolby Digital
    Codec ID : A_AC3
    Duration : 43 min 16 s
    Bit rate mode : Constant
    Bit rate : 448 kb/s
    Channel(s) : 2 channels
    Channel layout : L R
    Sampling rate : 48.0 kHz
    Frame rate : 31.250 FPS (1536 SPF)
    Compression mode : Lossy
    Stream size : 139 MiB (4%)
    Title : [Thai-AC-3]
    Language : Thai
    Service kind : Complete Main
    Default : Yes
    Forced : No

    Audio #2
    ID : 3
    Format : E-AC-3
    Format/Info : Enhanced AC-3
    Commercial name : Dolby Digital Plus
    Codec ID : A_EAC3
    Duration : 43 min 16 s
    Bit rate mode : Constant
    Bit rate : 640 kb/s
    Channel(s) : 6 channels
    Channel layout : L R C LFE Ls Rs
    Sampling rate : 48.0 kHz
    Frame rate : 31.250 FPS (1536 SPF)
    Compression mode : Lossy
    Stream size : 198 MiB (6%)
    Title : [English-AC-3]
    Language : English
    Service kind : Complete Main
    Default : No
    Forced : No

    Text
    ID : 4
    Format : UTF-8
    Codec ID : S_TEXT/UTF8
    Codec ID/Info : UTF-8 Plain Text
    Duration : 42 min 35 s
    Bit rate : 64 b/s
    Count of elements : 655
    Stream size : 20.1 KiB (0%)
    Title : SDH
    Language : English
    Default : No
    Forced : No





    1
    http://www.filecondo.com/dl.php?f=1ae0e81KFBLZ

  2. #2
    Senior Member
    สมัครเมื่อ
    May 2011
    โพสต์
    120
    Thanks
    44
    Thanked 0 Times in 0 Posts
    ไฟล์หายไปแล้วครับ

  3. #3
    Administrators รูปส่วนตัว Duckload.us
    สมัครเมื่อ
    Dec 2010
    โพสต์
    126,387
    Thanks
    7
    Thanked 130,974 Times in 58,015 Posts
    อ้างอิง โพสต์ต้นฉบับโดยคุณ langkhao ดูโพสต์
    ไฟล์หายไปแล้วครับ
    รอให้จบเดี๋ยวอัพครบชุดนะครับ

  4. #4
    Senior Member
    สมัครเมื่อ
    May 2011
    โพสต์
    120
    Thanks
    44
    Thanked 0 Times in 0 Posts
    ขอบคุณครับ

+ ตอบกลับกระทู้

ข้อมูลกระทู้

Users Browsing this Thread

ในขณะนี้มี 1 ท่านดูกระทู้อยู่. (0 สมาชิกและ 1 ผู้เยี่ยมชม)

     

กฎการโพสต์ข้อความ

  • ท่าน ไม่สามารถ ตั้งกระทู้ใหม่ได้
  • ท่าน ไม่สามารถ ตอบกระทู้ได้
  • ท่าน ไม่สามารถ แนบไฟล์ได้
  • ท่าน ไม่สามารถ แก้ไขข้อความโพสต์ได้
  • BB code สถานะ เปิด
  • Smilies สถานะ เปิด
  • [IMG] สถานะ เปิด
  • HTML สถานะ ปิด