ธุลีปริศนา ซีซั่น 2
ในซีซั่นที่สอง Lord Asriel ได้เปิดสะพานสู่โลกใหม่ Lyra รู้สึกเศร้าเสียใจกับการตายของเพื่อนสนิทที่สุดของเธ อ Lyra จึงติดตาม Asriel ไปสู่สถานที่ที่ไม่รู้จัก

Video
ID : 1
Format : AVC
Format/Info : Advanced Video Codec
Format profile : [email protected]
Format settings : CABAC / 4 Ref Frames
Format settings, CABAC : Yes
Format settings, Reference fra : 4 frames
Codec ID : V_MPEG4/ISO/AVC
Duration : 46 min 38 s
Bit rate mode : Constant
Bit rate : 9 305 kb/s
Nominal bit rate : 10 000 kb/s
Width : 1 920 pixels
Height : 960 pixels
Display aspect ratio : 2.000
Frame rate mode : Constant
Frame rate : 25.000 FPS
Color space : YUV
Chroma subsampling : 4:2:0
Bit depth : 8 bits
Scan type : Progressive
Bits/(Pixel*Frame) : 0.202
Stream size : 3.03 GiB (93%)
Default : Yes
Forced : No
Color range : Limited
Color primaries : BT.709
Transfer characteristics : BT.709
Matrix coefficients : BT.709

Audio
ID : 2
Format : E-AC-3
Format/Info : Enhanced AC-3
Commercial name : Dolby Digital Plus
Codec ID : A_EAC3
Duration : 46 min 38 s
Bit rate mode : Constant
Bit rate : 640 kb/s
Channel(s) : 6 channels
Channel layout : L R C LFE Ls Rs
Sampling rate : 48.0 kHz
Frame rate : 31.250 FPS (1536 SPF)
Compression mode : Lossy
Stream size : 214 MiB (6%)
Title : [English-AC-3]
Language : English
Service kind : Complete Main
Default : Yes
Forced : No

Text #1
ID : 3
Format : PGS
Muxing mode : zlib
Codec ID : S_HDMV/PGS
Codec ID/Info : Picture based subtitle format used on BDs/HD-DVDs
Duration : 45 min 8 s
Bit rate : 42.8 kb/s
Count of elements : 1122
Stream size : 13.8 MiB (0%)
Title : [EucrosiaUPC PGS]
Language : Thai
Default : Yes
Forced : No

Text #2
ID : 4
Format : PGS
Muxing mode : zlib
Codec ID : S_HDMV/PGS
Codec ID/Info : Picture based subtitle format used on BDs/HD-DVDs
Duration : 45 min 8 s
Bit rate : 38.4 kb/s
Count of elements : 1122
Stream size : 12.4 MiB (0%)
Title : [Cordia New PGS]
Language : Thai
Default : No
Forced : No

Text #3
ID : 5
Format : PGS
Muxing mode : zlib
Codec ID : S_HDMV/PGS
Codec ID/Info : Picture based subtitle format used on BDs/HD-DVDs
Duration : 45 min 8 s
Bit rate : 42.8 kb/s
Count of elements : 1122
Stream size : 13.8 MiB (0%)
Title : [TH Sarabun New PGS]
Language : Thai
Default : No
Forced : No

Text #4
ID : 6
Format : UTF-8
Codec ID : S_TEXT/UTF8
Codec ID/Info : UTF-8 Plain Text
Duration : 44 min 50 s
Bit rate : 45 b/s
Count of elements : 507
Stream size : 15.0 KiB (0%)
Title : SRT
Language : English
Default : No
Forced : No

Text #5
ID : 7
Format : UTF-8
Codec ID : S_TEXT/UTF8
Codec ID/Info : UTF-8 Plain Text
Duration : 45 min 1 s
Bit rate : 48 b/s
Count of elements : 574
Stream size : 16.1 KiB (0%)
Title : SDH
Language : English
Default : No
Forced : No








1
http://www.filecondo.com/dl.php?f=Ja3b101KFBH6