+ ตอบกลับกระทู้
สรุปผลการค้นหา 1 ถึง 4 จากทั้งหมด 4
  1. #1
    Administrators รูปส่วนตัว Duckload.us
    สมัครเมื่อ
    Dec 2010
    โพสต์
    150,776
    Thanks
    7
    Thanked 158,039 Times in 69,004 Posts

    Lightbulb [ฝรั่ง]-The Blacklist Season 2 : บัญชีดำอาชญากรรมซ่อนเงื่อน ปี 2-WEB-DL.H.264.1080p. [Hi-def rip from Master]-[พากย์ไทย-พากย์อังกฤษ DDP5.1-บรรยายไทยมชัด PGS]



















    PLOT




    เป็นเวลานานนับสิบๆปีแล้วที่อดีตเจ้าหน้าที่รัฐบาล Raymond “Red” Reddington(James Spader) ต้องกลายเป็นผู้หลบหนีที่ FBI ต้องการตัวมากที่สุดในฐานะผู้ประสานงานอยู่เบื้องหลั งองค์กรอาชญากรรมทั่วโลก จู่ๆ Red ก็เดินเข้ามามอบตัวที่สำนักงานใหญ่ของ FBI โดยยื่นข้อเสนอว่า เขาจะให้ความร่วมมือกับ FBI อย่างเต็มที่ในการติดตามจับกุมตัวผู้ก่อการร้ายสุดแส นอันตรายที่ชื่อ Ranko Zamani โดยมีเงื่อนไขว่า เขาจะยอมพูดคุยกับเจ้าหน้าที่ FBI Elizabeth “Liz” Keen ผู้เชี่ยวชาญด้านการทำโครงสร้างอาชญากรที่เพิ่งเรียน จบมาใหม่ๆจากควอนติโกเพียงคนเดียวเท่านั้น

    FBI ตกลงตามนั้น Liz จึงถูกตามตัวให้มาทำหน้าที่เป็นผู้ประสานงานกับ Red และเมื่อองค์กรของ Ranko Zamani ถูกทำลายลงด้วยข้อมูลจาก Red เขาจึงยอมเปิดเผยว่า ที่จริงแล้ว Zamani เป็นเพียงคนแรกในรายชื่อเท่านั้น ยังมีบุคคลชั่วร้ายอีกมากมายที่ Red รู้จักตลอดช่วง 2 ทศวรรษที่ผ่านมาที่เขาเข้าไปยุ่งเกี่ยวกับโลกของอาชญ ากร บางคนเป็นคนที่ FBI ไม่ทราบเบื้องหลังอันเลวร้ายของเขาเลยด้วยซ้ำ และ Red ยินดีจะให้ข้อมูลรายชื่อเหล่านั้นกับ FBI ทีละคน ทีละคน รายชื่อที่ Red เรียกว่า “The Blacklist” เพียงแต่ Liz จะต้องรับหน้าที่เป็นคนประสานงานกับเขาเพียงคนเดียวเ ท่านั้น Red มีมูลเหตุจูงใจอะไรอยู่เบื้องหลังเรื่องนี้หรือไม่ ทำไมต้องเจาะจงให้ Liz เป็นผู้ประสานงานกับเขา ทั้งๆที่ Liz ไม่มีอะไรเกี่ยวข้องกับ Red มาก่อนเลยทั้งสิ้น หรือว่า Liz เองก็มีความลับส่วนตัวบางอย่างอยู่ในมือของ Red ด้วยกันแน่











    Quote:



    Format : Matroska
    Format version : Version 4 / Version 2
    File size : 1.67 GiB
    Duration : 43 min 7 s
    Overall bit rate : 5 549 kb/s
    Encoded date : UTC 2020-11-21 03:32:42
    Writing application : mkvmerge v48.0.0 ('Fortress Around Your Heart') 64-bit
    Writing library : libebml v1.4.0 + libmatroska v1.6.0

    Video
    ID : 1
    Format : AVC
    Format/Info : Advanced Video Codec
    Format profile : High@L4
    Format settings, CABAC : Yes
    Format settings, ReFrames : 4 frames
    Codec ID : V_MPEG4/ISO/AVC
    Duration : 43 min 6 s
    Bit rate : 4 500 kb/s
    Width : 1 920 pixels
    Height : 1 080 pixels
    Display aspect ratio : 16:9
    Frame rate mode : Constant
    Frame rate : 23.976 (24000/1001) FPS
    Color space : YUV
    Chroma subsampling : 4:2:0
    Bit depth : 8 bits
    Scan type : Progressive
    Bits/(Pixel*Frame) : 0.091
    Default : Yes
    Forced : No
    Color range : Limited
    Color primaries : BT.709
    Transfer characteristics : BT.709
    Matrix coefficients : BT.709

    Audio #1
    ID : 2
    Format : AC-3
    Format/Info : Audio Coding 3
    Mode extension : CM (complete main)
    Format settings, Endianness : Big
    Codec ID : A_AC3
    Duration : 43 min 6 s
    Bit rate mode : Constant
    Bit rate : 448 kb/s
    Channel(s) : 2 channels
    Channel positions : Front: L R
    Sampling rate : 44.1 kHz
    Frame rate : 28.711 FPS (1536 spf)
    Compression mode : Lossy
    Stream size : 138 MiB (8%)
    Language : Thai
    Default : Yes
    Forced : No

    Audio #2
    ID : 3
    Format : E-AC-3
    Format/Info : Audio Coding 3
    Format settings, Endianness : Big
    Codec ID : A_EAC3
    Duration : 43 min 7 s
    Bit rate mode : Constant
    Bit rate : 640 kb/s
    Channel(s) : 6 channels
    Channel positions : Front: L C R, Side: L R, LFE
    Sampling rate : 48.0 kHz
    Frame rate : 187.500 FPS (256 spf)
    Compression mode : Lossy
    Stream size : 197 MiB (12%)
    Title : English [Original]
    Language : English
    Default : No
    Forced : No

    Text #1
    ID : 4
    Format : PGS
    Muxing mode : zlib
    Codec ID : S_HDMV/PGS
    Codec ID/Info : Picture based subtitle format used on BDs/HD-DVDs
    Duration : 41 min 28 s
    Bit rate : 40.1 kb/s
    Count of elements : 1084
    Stream size : 11.9 MiB (1%)
    Language : Thai
    Default : Yes
    Forced : No

    Text #2
    ID : 5
    Format : PGS
    Muxing mode : zlib
    Codec ID : S_HDMV/PGS
    Codec ID/Info : Picture based subtitle format used on BDs/HD-DVDs
    Duration : 41 min 28 s
    Bit rate : 35.6 kb/s
    Count of elements : 1084
    Stream size : 10.6 MiB (1%)
    Language : Thai
    Default : No
    Forced : No

    Text #3
    ID : 6
    Format : UTF-8
    Codec ID : S_TEXT/UTF8
    Codec ID/Info : UTF-8 Plain Text
    Duration : 41 min 28 s
    Bit rate : 142 b/s
    Count of elements : 542
    Stream size : 43.3 KiB (0%)
    Title : Thai
    Language : Thai
    Default : No
    Forced : No

    Text #4
    ID : 7
    Format : UTF-8
    Codec ID : S_TEXT/UTF8
    Codec ID/Info : UTF-8 Plain Text
    Duration : 42 min 3 s
    Bit rate : 82 b/s
    Count of elements : 799
    Stream size : 25.4 KiB (0%)
    Title : English
    Language : English
    Default : No
    Forced : No

    Text #5
    ID : 8
    Format : UTF-8
    Codec ID : S_TEXT/UTF8
    Codec ID/Info : UTF-8 Plain Text
    Duration : 41 min 28 s
    Bit rate : 71 b/s
    Count of elements : 535
    Stream size : 21.6 KiB (0%)
    Title : English
    Language : English
    Default : No
    Forced : No

    1
    http://www.filecondo.com/dl.php?f=c2460f1KGQEZ
    2
    http://www.filecondo.com/dl.php?f=jbd0971KGQG4
    3
    http://www.filecondo.com/dl.php?f=W00fc11KGQGU
    4
    http://www.filecondo.com/dl.php?f=z66ca01KGQHT
    5
    http://www.filecondo.com/dl.php?f=j269511KGQNq
    6
    http://www.filecondo.com/dl.php?f=y0466d1KGQU1
    7
    http://www.filecondo.com/dl.php?f=L9281b1KGQUr
    8
    http://www.filecondo.com/dl.php?f=L2895c1KGQVT
    9
    http://www.filecondo.com/dl.php?f=t72d8c1KGQWu
    10
    http://www.filecondo.com/dl.php?f=D057281KGR1X
    11
    http://www.filecondo.com/dl.php?f=d127321KGR7o
    12
    http://www.filecondo.com/dl.php?f=15a0721KGRgN
    13
    http://www.filecondo.com/dl.php?f=ec54b71KGRma
    14
    http://www.filecondo.com/dl.php?f=Q7c2141KGRs2
    15
    http://www.filecondo.com/dl.php?f=qc77a81KGRzN
    16
    http://www.filecondo.com/dl.php?f=O254891KGRIA
    17
    http://www.filecondo.com/dl.php?f=l5b7881KGRPY
    18
    http://www.filecondo.com/dl.php?f=53221a1KGRUV
    19
    http://www.filecondo.com/dl.php?f=p293ee1KGRWH
    20
    http://www.filecondo.com/dl.php?f=Rc7e561KGS1n
    21
    http://www.filecondo.com/dl.php?f=k27e631KGS2K
    22
    http://www.filecondo.com/dl.php?f=00f5091KGS34

  2. #2
    Senior Member
    สมัครเมื่อ
    Jul 2012
    โพสต์
    8,630
    Thanks
    0
    Thanked 0 Times in 0 Posts
    ขอบคุณมากจ้า

  3. #3
    Senior Member
    สมัครเมื่อ
    Jul 2013
    โพสต์
    3,649
    Thanks
    0
    Thanked 0 Times in 0 Posts
    ขอบคุณครับผม

  4. #4
    Senior Member
    สมัครเมื่อ
    May 2012
    โพสต์
    2,054
    Thanks
    0
    Thanked 0 Times in 0 Posts
    ขอบคุณครับ

+ ตอบกลับกระทู้

ข้อมูลกระทู้

Users Browsing this Thread

ในขณะนี้มี 1 ท่านดูกระทู้อยู่. (0 สมาชิกและ 1 ผู้เยี่ยมชม)

     

กฎการโพสต์ข้อความ

  • ท่าน ไม่สามารถ ตั้งกระทู้ใหม่ได้
  • ท่าน ไม่สามารถ ตอบกระทู้ได้
  • ท่าน ไม่สามารถ แนบไฟล์ได้
  • ท่าน ไม่สามารถ แก้ไขข้อความโพสต์ได้
  • BB code สถานะ เปิด
  • Smilies สถานะ เปิด
  • [IMG] สถานะ เปิด
  • HTML สถานะ ปิด