+ ตอบกลับกระทู้
สรุปผลการค้นหา 1 ถึง 2 จากทั้งหมด 2
  1. #1
    Administrators รูปส่วนตัว Duckload.us
    สมัครเมื่อ
    Dec 2010
    โพสต์
    122,622
    Thanks
    7
    Thanked 127,899 Times in 57,005 Posts

    Angry [ฝรั่ง]-Toy Story (1995-2019) ทอย สตอรี่ 1-4 [HEVC 10bits][EN AAC LC/DTS ES - TH AC3]-Encode.H.265.2160p. [Modified]-[พากย์ไทย บรรยายไทย]



    Toy Story[1995][HDR][4K][BluRay][HEVC10bits]
    Sound [EN AAC LC/DTS ES - TH AC3]
    Sub [EN-TH-OTHERS]

    เรื่องย่อ Toy Story 1

    วูดี้ ของเล่นคาวบอย ในฐานะของเล่นตัวโปรดของแอนดี้ เด็กชายวัย 6 ขวบ ทำให้วูดี้กลายเป็นหัวหน้าบรรดาของเล่น ด้วยความมาดมั่น ใกล้วันที่ย้ายบ้าน แอนดี้ จึงจัดวันเกิดก่อนวันเกิดจริง แต่เมื่อบัซ ไลท์เยียร์ ตุ๊กตาตำรวจอวกาศที่แม่ให้เป็นของขวัญซอไพรซ์ ได้ก้าวเข้าในถิ่นของวูดี้ ในฐานะของขวัญวันเกิดชิ้นโปรดของแอนดี้ การชิงดีชิงเด่น เพื่อเป็นขวัญใจ ของเจ้านายตัวน้อยจึงเกิดขึ้น และส่งผลให้ทั้งคู่ต้องตกไปอยู่ในบ้านของซิด เด็กชายข้างบ้านผู้รักที่จะทำลายของเล่นเป็นชีวิตจิต ใจ และการร่วมมือระหว่างวูดี้กับบัซ เพื่อหลบหนีกลับมานี่เองที่ทำให้พวกเขาตระหนักถึงมิต รแท้ วู้ดดี้ และ บัซ ไลท์เยียร์ ได้พยายามไปให้ทันรถขนส่งให้ได้ คู่หูที่ดูไม่น่าจะเข้ากันได้ทั้งสองต้องเรียนรู้ที่ จะปล่อยวายความแตกต่างของแต่ละคนเพื่อที่จะเอาชนะอุป สรรคที่จะทำให้ทั้งคู่ต้องแยกจาก แอนดี้ เจ้าของพวกเขา กับการผจญภัยสุดป่วน ภารกิจสุดฮา กับเพื่อนพ้องของเล่นอีกมากมาย


    General
    Complete name : Toy Story 1 [1995][HDR][4K][BluRay][HEVC10bits].mkv
    Format : Matroska
    Format version : Version 4
    File size : 5.89 GiB
    Duration : 1 h 21 min
    Overall bit rate : 10.4 Mb/s
    Movie name : Toy Story 4K remux by Zian
    Encoded date : UTC 2020-10-18 13:52:51
    Writing application : mkvmerge v50.0.0 ('Awakenings') 64-bit
    Writing library : libebml v1.4.0 + libmatroska v1.6.2

    Video
    ID : 1
    Format : HEVC
    Format/Info : High Efficiency Video Coding
    Format profile : Main [email protected]@Main
    Codec ID : V_MPEGH/ISO/HEVC
    Duration : 1 h 21 min
    Bit rate : 7 231 kb/s
    Width : 3 840 pixels
    Height : 2 160 pixels
    Display aspect ratio : 16:9
    Frame rate mode : Constant
    Frame rate : 23.976 (24000/1001) FPS
    Color space : YUV
    Chroma subsampling : 4:2:0
    Bit depth : 10 bits
    Bits/(Pixel*Frame) : 0.036
    Stream size : 4.10 GiB (70%)
    Title : Toy Story 4K remux by Zian
    Writing library : x265 3.0:[Windows][GCC 8.3.0][64 bit] 10bit
    Encoding settings : cpuid=1111039 / frame-threads=6 / numa-pools=32,0 / wpp / no-pmode / no-pme / no-psnr / no-ssim / log-level=2 / input-csp=1 / input-res=3840x2160 / interlace=0 / total-frames=0 / level-idc=0 / high-tier=1 / uhd-bd=0 / ref=4 / no-allow-non-conformance / repeat-headers / annexb / no-aud / no-hrd / info / hash=0 / no-temporal-layers / open-gop / min-keyint=24 / keyint=240 / gop-lookahead=0 / bframes=8 / b-adapt=2 / b-pyramid / bframe-bias=0 / rc-lookahead=70 / lookahead-slices=4 / scenecut=40 / radl=0 / no-splice / no-intra-refresh / ctu=64 / min-cu-size=8 / rect / no-amp / max-tu-size=32 / tu-inter-depth=1 / tu-intra-depth=1 / limit-tu=0 / rdoq-level=2 / dynamic-rd=0.00 / no-ssim-rd / signh-i-d-e / no-tskip / nr-intra=0 / nr-inter=0 / no-constrained-intra / no-strong-intra-smoothing / max-merge=3 / limit-refs=3 / limit-modes / me=3 / subme=5 / merange=57 / temporal-mvp / weightp / no-weightb / no-analyze-src-pics / deblock=1:1 / sao / no-sao-non-deblock / rd=4 / no-early-skip / rskip / no-fast-intra / no-tskip-fast / no-cu-lossless / no-b-intra / no-splitrd-skip / rdpenalty=0 / psy-rd=0.40 / psy-rdoq=1.00 / no-rd-refine / no-lossless / cbqpoffs=0 / crqpoffs=0 / rc=crf / crf=18.0 / qcomp=0.60 / qpstep=4 / stats-write=0 / stats-read=0 / ipratio=1.40 / pbratio=1.30 / aq-mode=2 / aq-strength=0.40 / cutree / zone-count=0 / no-strict-cbr / qg-size=32 / no-rc-grain / qpmax=69 / qpmin=0 / no-const-vbv / sar=1 / overscan=0 / videoformat=5 / range=0 / colorprim=9 / transfer=16 / colormatrix=9 / chromaloc=0 / display-window=0 / max-cll=0,0 / min-luma=0 / max-luma=1023 / log2-max-poc-lsb=8 / vui-timing-info / vui-hrd-info / slices=1 / no-opt-qp-pps / no-opt-ref-list-length-pps / no-multi-pass-opt-rps / scenecut-bias=0.05 / no-opt-cu-delta-qp / no-aq-motion / hdr / hdr-opt / no-dhdr10-opt / no-idr-recovery-sei / analysis-reuse-level=5 / scale-factor=0 / refine-intra=0 / refine-inter=0 / refine-mv=0 / refine-ctu-distortion=0 / no-limit-sao / ctu-info=0 / no-lowpass-dct / refine-analysis-type=0 / copy-pic=1 / max-ausize-factor=1.0 / no-dynamic-refine / no-single-sei / no-hevc-aq / qp-adaptation-range=1.00
    Default : Yes
    Forced : No
    Color range : Limited
    Color primaries : BT.2020
    Transfer characteristics : PQ
    Matrix coefficients : BT.2020 non-constant

    Audio #1
    ID : 2
    Format : AC-3
    Format/Info : Audio Coding 3
    Commercial name : Dolby Digital
    Codec ID : A_AC3
    Duration : 1 h 21 min
    Bit rate mode : Constant
    Bit rate : 640 kb/s
    Channel(s) : 6 channels
    Channel layout : L R C LFE Ls Rs
    Sampling rate : 48.0 kHz
    Frame rate : 31.250 FPS (1536 SPF)
    Bit depth : 16 bits
    Compression mode : Lossy
    Delay relative to video : 817 ms
    Stream size : 371 MiB (6%)
    Title : Thai AC-3 640Kb/s 5.1CH
    Language : Thai
    Service kind : Complete Main
    Default : Yes
    Forced : No

    Audio #2
    ID : 3
    Format : DTS ES
    Format/Info : Digital Theater Systems
    Commercial name : DTS-ES Matrix
    Codec ID : A_DTS
    Duration : 1 h 21 min
    Bit rate mode : Constant
    Bit rate : 1 509 kb/s
    Channel(s) : 6 channels
    Channel(s)_Original : 7 channels
    Channel layout : C L R Ls Rs Cb LFE
    Sampling rate : 48.0 kHz
    Frame rate : 93.750 FPS (512 SPF)
    Bit depth : 24 bits
    Compression mode : Lossy
    Delay relative to video : 817 ms
    Stream size : 875 MiB (15%)
    Title : Eng DTS-ES 1,509Kb/s 5.1CH
    Language : English
    Default : No
    Forced : No

    Audio #3
    ID : 4
    Format : AAC LC
    Format/Info : Advanced Audio Codec Low Complexity
    Codec ID : A_AAC-2
    Duration : 1 h 21 min
    Bit rate : 715 kb/s
    Channel(s) : 8 channels
    Channel layout : C L R Ls Rs Rls Rb LFE
    Sampling rate : 48.0 kHz
    Frame rate : 46.875 FPS (1024 SPF)
    Compression mode : Lossy
    Delay relative to video : 20 ms
    Stream size : 415 MiB (7%)
    Title : Eng AAC-LC 715Kb/s 7.1CH
    Language : English
    Default : No
    Forced : No

    Audio #4
    ID : 5
    Format : AC-3
    Format/Info : Audio Coding 3
    Commercial name : Dolby Digital
    Codec ID : A_AC3
    Duration : 1 h 21 min
    Bit rate mode : Constant
    Bit rate : 192 kb/s
    Channel(s) : 2 channels
    Channel layout : L R
    Sampling rate : 48.0 kHz
    Frame rate : 31.250 FPS (1536 SPF)
    Bit depth : 16 bits
    Compression mode : Lossy
    Stream size : 111 MiB (2%)
    Title : Commentary by John Lasseter/Ralph Guggenheim/Bonnie Arnold/Andrew Stanton/Pete Docter/Bill Reeves/Ralph Eggleston
    Language : English
    Service kind : Complete Main
    Default : No
    Forced : No

    Text #1
    ID : 6
    Format : VobSub
    Muxing mode : zlib
    Codec ID : S_VOBSUB
    Codec ID/Info : Picture based subtitle format used on DVDs
    Duration : 1 h 16 min
    Bit rate : 8 440 b/s
    Count of elements : 1123
    Stream size : 4.59 MiB (0%)
    Title : Thai 1080p
    Language : Thai
    Default : Yes
    Forced : No

    Text #2
    ID : 7
    Format : PGS
    Muxing mode : zlib
    Codec ID : S_HDMV/PGS
    Codec ID/Info : Picture based subtitle format used on BDs/HD-DVDs
    Duration : 1 h 18 min
    Bit rate : 54.7 kb/s
    Count of elements : 2772
    Stream size : 30.5 MiB (1%)
    Title : English (SDH)
    Language : English
    Default : No
    Forced : No

    Text #3
    ID : 8
    Format : PGS
    Muxing mode : zlib
    Codec ID : S_HDMV/PGS
    Codec ID/Info : Picture based subtitle format used on BDs/HD-DVDs
    Duration : 1 h 18 min
    Bit rate : 26.6 kb/s
    Count of elements : 2072
    Stream size : 14.9 MiB (0%)
    Title : Chinese (Mandarin Traditional)
    Language : Chinese
    Default : No
    Forced : No

    Text #4
    ID : 9
    Format : PGS
    Muxing mode : zlib
    Codec ID : S_HDMV/PGS
    Codec ID/Info : Picture based subtitle format used on BDs/HD-DVDs
    Duration : 1 h 18 min
    Bit rate : 31.9 kb/s
    Count of elements : 1974
    Stream size : 17.8 MiB (0%)
    Title : French (Canadian)
    Language : French
    Default : No
    Forced : No

    Text #5
    ID : 10
    Format : PGS
    Muxing mode : zlib
    Codec ID : S_HDMV/PGS
    Codec ID/Info : Picture based subtitle format used on BDs/HD-DVDs
    Duration : 1 h 18 min
    Bit rate : 37.1 kb/s
    Count of elements : 2076
    Stream size : 20.7 MiB (0%)
    Title : German
    Language : German
    Default : No
    Forced : No

    Text #6
    ID : 11
    Format : PGS
    Muxing mode : zlib
    Codec ID : S_HDMV/PGS
    Codec ID/Info : Picture based subtitle format used on BDs/HD-DVDs
    Duration : 1 h 18 min
    Bit rate : 25.9 kb/s
    Count of elements : 2072
    Stream size : 14.5 MiB (0%)
    Title : Japanese
    Language : Japanese
    Default : No
    Forced : No

    Text #7
    ID : 12
    Format : PGS
    Muxing mode : zlib
    Codec ID : S_HDMV/PGS
    Codec ID/Info : Picture based subtitle format used on BDs/HD-DVDs
    Duration : 1 h 18 min
    Bit rate : 23.6 kb/s
    Count of elements : 2286
    Stream size : 13.2 MiB (0%)
    Title : Korean
    Language : Korean
    Default : No
    Forced : No

    Text #8
    ID : 13
    Format : PGS
    Muxing mode : zlib
    Codec ID : S_HDMV/PGS
    Codec ID/Info : Picture based subtitle format used on BDs/HD-DVDs
    Duration : 1 h 18 min
    Bit rate : 40.4 kb/s
    Count of elements : 2098
    Stream size : 22.6 MiB (0%)
    Title : Spanish (Latin American)
    Language : Spanish
    Default : No
    Forced : No

    Text #9
    ID : 14
    Format : PGS
    Muxing mode : zlib
    Codec ID : S_HDMV/PGS
    Codec ID/Info : Picture based subtitle format used on BDs/HD-DVDs
    Duration : 1 h 20 min
    Bit rate : 75.0 kb/s
    Count of elements : 3298
    Stream size : 43.2 MiB (1%)
    Title : English (Commentary)
    Language : English
    Default : No
    Forced : No




    Toy Story 1 [1995][HDR][4K][BluRay][HEVC10bits].mkv - 5.9 GB
    Toy Story 2 [1999][4K][HEVC10bits].mkv - 5.7 GB
    Toy Story 3 [2010][4K][HEVC10bits].mkv - 6.4 GB
    Toy Story 4 [2019][4K][HEVC10bits].mkv - 5.5 GB

  2. The Following User Says Thank You to Duckload.us For This Useful Post:

    thatsna4555555 (12-04-2020)

  3. #2
    Senior Member
    สมัครเมื่อ
    Jul 2012
    โพสต์
    7,220
    Thanks
    0
    Thanked 0 Times in 0 Posts
    ขอบคุณมากจ้า

+ ตอบกลับกระทู้

ข้อมูลกระทู้

Users Browsing this Thread

ในขณะนี้มี 1 ท่านดูกระทู้อยู่. (0 สมาชิกและ 1 ผู้เยี่ยมชม)

     

กฎการโพสต์ข้อความ

  • ท่าน ไม่สามารถ ตั้งกระทู้ใหม่ได้
  • ท่าน ไม่สามารถ ตอบกระทู้ได้
  • ท่าน ไม่สามารถ แนบไฟล์ได้
  • ท่าน ไม่สามารถ แก้ไขข้อความโพสต์ได้
  • BB code สถานะ เปิด
  • Smilies สถานะ เปิด
  • [IMG] สถานะ เปิด
  • HTML สถานะ ปิด