+ ตอบกลับกระทู้
สรุปผลการค้นหา 1 ถึง 2 จากทั้งหมด 2
  1. #1
    Administrators รูปส่วนตัว Duckload.us
    สมัครเมื่อ
    Dec 2010
    โพสต์
    122,403
    Thanks
    7
    Thanked 127,697 Times in 56,918 Posts

    Angry [ฝรั่ง]-Eyes Wide Shut (1999) พิษราคะ-Blu-ray.DTS.1080p. [Modified]-[Soundtrack บรรยายไทย]




    After his wife, Alice, tells him her sexual fantasies, William Harford sets out for a night of sexual adventure. After several less than successful encounters, he meets an old friend, Nick Nightingale - now a musician - who tells him of strange sex parties when he is required to play the piano blindfolded. All the men at the party are costumed and wear masks while the women are all young and beautiful. Harford manages to find an appropriate costume and heads out to the party. Once there, however, he is warned by someone who recognizes him, despite the mask, that he is in great danger. He manages to extricate himself but the threats prove to be quite real and sinister.


    Format : Matroska
    Format version : Version 4
    File size : 7.22 GiB
    Duration : 2 h 39 min
    Overall bit rate mode : Variable
    Overall bit rate : 6 500 kb/s
    Encoded date : UTC 2020-04-04 09:05:14
    Writing application : mkvmerge v44.0.0 ('Domino') 64-bit
    Writing library : libebml v1.3.10 + libmatroska v1.5.2

    Video
    ID : 1
    Format : AVC
    Format/Info : Advanced Video Codec
    Format profile : [email protected]
    Format settings : CABAC / 1 Ref Frames
    Format settings, CABAC : Yes
    Format settings, Reference : 1 frame
    Codec ID : V_MPEG4/ISO/AVC
    Duration : 2 h 39 min
    Bit rate mode : Variable
    Bit rate : 4 959 kb/s
    Maximum bit rate : 14.8 Mb/s
    Width : 1 920 pixels
    Height : 1 080 pixels
    Display aspect ratio : 16:9
    Frame rate mode : Constant
    Frame rate : 23.976 (23976/1000) FPS
    Original frame rate : 23.976 (24000/1001) FPS
    Color space : YUV
    Chroma subsampling : 4:2:0
    Bit depth : 8 bits
    Scan type : Progressive
    Bits/(Pixel*Frame) : 0.100
    Stream size : 5.51 GiB (76%)
    Language : English
    Default : Yes
    Forced : No

    Audio
    ID : 2
    Format : DTS
    Format/Info : Digital Theater Systems
    Codec ID : A_DTS
    Duration : 2 h 39 min
    Bit rate mode : Constant
    Bit rate : 1 509 kb/s
    Channel(s) : 6 channels
    Channel layout : C L R Ls Rs LFE
    Sampling rate : 48.0 kHz
    Frame rate : 93.750 FPS (512 SPF)
    Bit depth : 24 bits
    Compression mode : Lossy
    Delay relative to video : -21 ms
    Stream size : 1.68 GiB (23%)
    Title : DTS English
    Language : English
    Default : Yes
    Forced : No

    Text #1
    ID : 3
    Format : VobSub
    Muxing mode : zlib
    Codec ID : S_VOBSUB
    Codec ID/Info : Picture based subtitle format used on DVDs
    Duration : 2 h 32 min
    Bit rate : 6 909 b/s
    Count of elements : 1386
    Stream size : 7.54 MiB (0%)
    Title : Sub Thai 1080p
    Language : Thai
    Default : No
    Forced : No

    Text #2
    ID : 4
    Format : UTF-8
    Codec ID : S_TEXT/UTF8
    Codec ID/Info : UTF-8 Plain Text
    Duration : 2 h 32 min
    Bit rate : 78 b/s
    Count of elements : 1386
    Stream size : 87.2 KiB (0%)
    Title : Sub Thai SRT
    Language : Thai
    Default : No
    Forced : No

    Text #3
    ID : 5
    Format : PGS
    Muxing mode : zlib
    Codec ID : S_HDMV/PGS
    Codec ID/Info : Picture based subtitle format used on BDs/HD-DVDs
    Duration : 2 h 32 min
    Bit rate : 22.2 kb/s
    Count of elements : 2772
    Stream size : 24.2 MiB (0%)
    Title : Sub Thai PGS
    Language : Thai
    Default : Yes
    Forced : No

    Text #4
    ID : 6
    Format : VobSub
    Muxing mode : zlib
    Codec ID : S_VOBSUB
    Codec ID/Info : Picture based subtitle format used on DVDs
    Duration : 2 h 32 min
    Bit rate : 7 391 b/s
    Count of elements : 1430
    Stream size : 8.07 MiB (0%)
    Title : Sub English 1080p
    Language : English
    Default : No
    Forced : No

    Text #5
    ID : 7
    Format : UTF-8
    Codec ID : S_TEXT/UTF8
    Codec ID/Info : UTF-8 Plain Text
    Duration : 2 h 32 min
    Bit rate : 37 b/s
    Count of elements : 1430
    Stream size : 41.7 KiB (0%)
    Title : Sub English SRT
    Language : English
    Default : No
    Forced : No

    Text #6
    ID : 8
    Format : PGS
    Muxing mode : zlib
    Codec ID : S_HDMV/PGS
    Codec ID/Info : Picture based subtitle format used on BDs/HD-DVDs
    Duration : 2 h 32 min
    Bit rate : 23.6 kb/s
    Count of elements : 2860
    Stream size : 25.8 MiB (0%)
    Title : Sub English PGS
    Language : English
    Default : No
    Forced : No

    Menu
    00:00:00.000 : :00:00:00.000
    00:02:42.162 : :00:02:42.162
    00:06:26.052 : :00:06:26.052
    00:10:13.112 : :00:10:13.112
    00:12:53.106 : :00:12:53.106
    00:20:45.578 : :00:20:45.578
    00:31:25.217 : :00:31:25.217
    00:37:20.738 : :00:37:20.738
    00:41:46.838 : :00:41:46.838
    00:45:34.899 : :00:45:34.899
    00:46:59.984 : :00:46:59.984
    00:51:01.558 : :00:51:01.558
    00:54:49.620 : :00:54:49.620
    01:01:26.683 : :01:01:26.683
    01:05:15.912 : :01:05:15.912
    01:08:42.285 : :01:08:42.285
    01:12:05.321 : :01:12:05.321
    01:15:40.035 : :01:15:40.035
    01:19:25.761 : :01:19:25.761
    01:22:19.601 : :01:22:19.601
    01:24:12.214 : :01:24:12.214
    01:27:22.904 : :01:27:22.904
    01:30:01.396 : :01:30:01.396
    01:32:55.737 : :01:32:55.737
    01:38:32.740 : :01:38:32.740
    01:41:15.736 : :01:41:15.736
    01:44:52.453 : :01:44:52.453
    01:47:37.951 : :01:47:37.951
    01:52:02.716 : :01:52:02.716
    01:55:30.257 : :01:55:30.257
    02:01:31.951 : :02:01:31.951
    02:04:46.312 : :02:04:46.312
    02:10:30.489 : :02:10:30.489
    02:15:02.094 : :02:15:02.094
    02:19:02.501 : :02:19:02.501
    02:24:12.477 : :02:24:12.477
    02:27:47.859 : :02:27:47.859
    02:33:38.209 : :02:33:38.209



    Eyes Wide Shut (1999).mkv 7.22 GB
    http://cornfile.com/wsw5ghtu6e70
    Eyes Wide Shut (1999).mkv 2.5 GB
    http://cornfile.com/qounv1xwr7xp

  2. #2
    Senior Member
    สมัครเมื่อ
    Jun 2014
    โพสต์
    5,217
    Thanks
    0
    Thanked 0 Times in 0 Posts
    ขอบคุณครับ

+ ตอบกลับกระทู้

ข้อมูลกระทู้

Users Browsing this Thread

ในขณะนี้มี 1 ท่านดูกระทู้อยู่. (0 สมาชิกและ 1 ผู้เยี่ยมชม)

     

กฎการโพสต์ข้อความ

  • ท่าน ไม่สามารถ ตั้งกระทู้ใหม่ได้
  • ท่าน ไม่สามารถ ตอบกระทู้ได้
  • ท่าน ไม่สามารถ แนบไฟล์ได้
  • ท่าน ไม่สามารถ แก้ไขข้อความโพสต์ได้
  • BB code สถานะ เปิด
  • Smilies สถานะ เปิด
  • [IMG] สถานะ เปิด
  • HTML สถานะ ปิด