+ ตอบกลับกระทู้
สรุปผลการค้นหา 1 ถึง 4 จากทั้งหมด 4
  1. #1
    Administrators รูปส่วนตัว Duckload.us
    สมัครเมื่อ
    Dec 2010
    โพสต์
    122,577
    Thanks
    7
    Thanked 127,823 Times in 56,962 Posts

    Angry [ฝรั่ง]-[ใหม่] Jungle (2017) : แดนฝัน ป่านรก [จากเหตุการณ์จริงของหนุ่มนักผจญภัย ในการเอาตัวรอดจากป่าดงดิบในประเทศโบลิเวีย]-Blu-ray.H.264.1080p. [Modified]-[พากย์ไทย-พากย์อังกฤษ-บรรยายอังกฤษ]








    กลุ่มเพื่อนร่วมกันกับไกด์ ร่วมกันเดินทางไปยังป่าโบลิเวียเพื่อค้นหาหมู่บ้านชา วอินเดียน และได้ค้นพบว่าป่าดงดิบนั้นเป็นสถานที่ที่ยากลำบาก เมื่อไม่มีอุปกรณ์ยังชีพ

    จากเรื่องจริงของ Yossi Ghinsberg อดีตนาวี อิสราเอล

    Code:
    Format                                   : Matroska
    Format version                           : Version 4 / Version 2
    File size                                : 4.03 GiB
    Duration                                 : 1 h 55 min
    Overall bit rate                         : 5 011 kb/s
    Movie name                               : Jungle.2017.1080p.BluRay.x264.AC3-Ferdi125
    Encoded date                             : UTC 2020-11-09 04:28:47
    Writing application                      : mkvmerge v48.0.0 ('Fortress Around Your Heart') 64-bit
    Writing library                          : libebml v1.4.0 + libmatroska v1.6.0
    
    Video
    ID                                       : 1
    Format                                   : AVC
    Format/Info                              : Advanced Video Codec
    Format profile                           : [email protected]
    Format settings, CABAC                   : Yes
    Format settings, ReFrames                : 4 frames
    Codec ID                                 : V_MPEG4/ISO/AVC
    Duration                                 : 1 h 55 min
    Bit rate                                 : 4 500 kb/s
    Width                                    : 1 920 pixels
    Height                                   : 800 pixels
    Display aspect ratio                     : 2.40:1
    Frame rate mode                          : Constant
    Frame rate                               : 24.000 FPS
    Color space                              : YUV
    Chroma subsampling                       : 4:2:0
    Bit depth                                : 8 bits
    Scan type                                : Progressive
    Bits/(Pixel*Frame)                       : 0.122
    Default                                  : Yes
    Forced                                   : No
    Color range                              : Limited
    Color primaries                          : BT.709
    Transfer characteristics                 : BT.709
    Matrix coefficients                      : BT.709
    
    Audio #1
    ID                                       : 2
    Format                                   : AC-3
    Format/Info                              : Audio Coding 3
    Mode extension                           : CM (complete main)
    Format settings, Endianness              : Big
    Codec ID                                 : A_AC3
    Duration                                 : 1 h 55 min
    Bit rate mode                            : Constant
    Bit rate                                 : 224 kb/s
    Channel(s)                               : 2 channels
    Channel positions                        : Front: L R
    Sampling rate                            : 48.0 kHz
    Frame rate                               : 31.250 FPS (1536 spf)
    Compression mode                         : Lossy
    Delay relative to video                  : -5 ms
    Stream size                              : 185 MiB (4%)
    Language                                 : Thai
    Default                                  : Yes
    Forced                                   : No
    
    Audio #2
    ID                                       : 3
    Format                                   : E-AC-3
    Format/Info                              : Audio Coding 3
    Format settings, Endianness              : Big
    Codec ID                                 : A_EAC3
    Duration                                 : 1 h 55 min
    Bit rate mode                            : Constant
    Bit rate                                 : 448 kb/s
    Channel(s)                               : 6 channels
    Channel positions                        : Front: L C R, Side: L R, LFE
    Sampling rate                            : 48.0 kHz
    Frame rate                               : 187.500 FPS (256 spf)
    Compression mode                         : Lossy
    Delay relative to video                  : -5 ms
    Stream size                              : 369 MiB (9%)
    Language                                 : English
    Default                                  : No
    Forced                                   : No
    
    Text
    ID                                       : 4
    Format                                   : UTF-8
    Codec ID                                 : S_TEXT/UTF8
    Codec ID/Info                            : UTF-8 Plain Text
    Duration                                 : 1 h 46 min
    Bit rate                                 : 34 b/s
    Count of elements                        : 1072
    Stream size                              : 27.2 KiB (0%)
    Language                                 : English
    Default                                  : Yes
    Forced                                   : Yes









    http://cornfile.com/8qvye5dc7tqo

  2. The Following 2 Users Say Thank You to Duckload.us For This Useful Post:

    bigbang06 (11-30-2020), Wesker_TOT (12-01-2020)

  3. #2
    Senior Member
    สมัครเมื่อ
    Dec 2013
    โพสต์
    2,547
    Thanks
    4,469
    Thanked 0 Times in 0 Posts
    ขอบคุณครับ...

  4. #3
    Senior Member
    สมัครเมื่อ
    Jul 2012
    โพสต์
    7,220
    Thanks
    0
    Thanked 0 Times in 0 Posts
    ขอบคุณมากจ้า

  5. #4
    Senior Member
    สมัครเมื่อ
    Jul 2013
    โพสต์
    1,647
    Thanks
    0
    Thanked 0 Times in 0 Posts
    ขอบคุณครับ

+ ตอบกลับกระทู้

ข้อมูลกระทู้

Users Browsing this Thread

ในขณะนี้มี 1 ท่านดูกระทู้อยู่. (0 สมาชิกและ 1 ผู้เยี่ยมชม)

     

กฎการโพสต์ข้อความ

  • ท่าน ไม่สามารถ ตั้งกระทู้ใหม่ได้
  • ท่าน ไม่สามารถ ตอบกระทู้ได้
  • ท่าน ไม่สามารถ แนบไฟล์ได้
  • ท่าน ไม่สามารถ แก้ไขข้อความโพสต์ได้
  • BB code สถานะ เปิด
  • Smilies สถานะ เปิด
  • [IMG] สถานะ เปิด
  • HTML สถานะ ปิด