+ ตอบกลับกระทู้
สรุปผลการค้นหา 1 ถึง 2 จากทั้งหมด 2
  1. #1
    Administrators รูปส่วนตัว Duckload.us
    สมัครเมื่อ
    Dec 2010
    โพสต์
    123,776
    Thanks
    7
    Thanked 128,790 Times in 57,297 Posts

    Lightbulb [ญี่ปุ่น]-[NETFLIX] Mimi wo sumaseba - Whisper of the Heart (1995) วันนั้น...วันไหน หัวใจจะเป็นสีชมพู-WEB-DL.AC-3.1080p. [rip from Master]-[พากย์ญี่ปุ่น-ไทย-อังกฤษ/บรรยายไทย-อังกฤษ]



    หลังจากพบว่ามีใครคนหนึ่งเคยยืมหนังสือทุกเล่มที่เธอ ยืมจากห้องสมุดมาก่อน ชิซูกุ นักเรียนสาวจึงตัดสินใจตามหาเขาคนนั้นและทำตามความฝั นของเธอไปพร้อมๆ กัน

    Format : Matroska
    Format version : Version 4
    File size : 5.00 GiB
    Duration : 1 h 51 min
    Overall bit rate : 6 437 kb/s
    Encoded date : UTC 2020-12-15 14:19:15
    Writing application : mkvmerge v51.0.0 ('I Wish') 64-bit
    Writing library : libebml v1.4.0 + libmatroska v1.6.2

    Video
    ID : 1
    Format : AVC
    Format/Info : Advanced Video Codec
    Format profile : [email protected]
    Format settings : CABAC / 3 Ref Frames
    Format settings, CABAC : Yes
    Format settings, Reference : 3 frames
    Codec ID : V_MPEG4/ISO/AVC
    Duration : 1 h 51 min
    Bit rate : 4 974 kb/s
    Width : 1 920 pixels
    Height : 1 032 pixels
    Display aspect ratio : 1.85:1
    Frame rate mode : Constant
    Frame rate : 23.976 (24000/1001) FPS
    Color space : YUV
    Chroma subsampling : 4:2:0
    Bit depth : 8 bits
    Scan type : Progressive
    Bits/(Pixel*Frame) : 0.105
    Stream size : 3.86 GiB (77%)
    Language : Japanese
    Default : Yes
    Forced : No

    Audio #1
    ID : 2
    Format : E-AC-3
    Format/Info : Enhanced AC-3
    Commercial name : Dolby Digital Plus
    Codec ID : A_EAC3
    Duration : 1 h 51 min
    Bit rate mode : Constant
    Bit rate : 640 kb/s
    Channel(s) : 6 channels
    Channel layout : L R C LFE Ls Rs
    Sampling rate : 48.0 kHz
    Frame rate : 31.250 FPS (1536 SPF)
    Compression mode : Lossy
    Stream size : 509 MiB (10%)
    Title : E-AC3 Japanese
    Language : Japanese
    Service kind : Complete Main
    Default : Yes
    Forced : No

    Audio #2
    ID : 3
    Format : E-AC-3
    Format/Info : Enhanced AC-3
    Commercial name : Dolby Digital Plus
    Codec ID : A_EAC3
    Duration : 1 h 51 min
    Bit rate mode : Constant
    Bit rate : 640 kb/s
    Channel(s) : 6 channels
    Channel layout : L R C LFE Ls Rs
    Sampling rate : 48.0 kHz
    Frame rate : 31.250 FPS (1536 SPF)
    Compression mode : Lossy
    Stream size : 509 MiB (10%)
    Title : E-AC3 Thai
    Language : Thai
    Service kind : Complete Main
    Default : No
    Forced : No

    Audio #3
    ID : 4
    Format : E-AC-3
    Format/Info : Enhanced AC-3
    Commercial name : Dolby Digital Plus
    Codec ID : A_EAC3
    Duration : 1 h 51 min
    Bit rate mode : Constant
    Bit rate : 128 kb/s
    Channel(s) : 2 channels
    Channel layout : L R
    Sampling rate : 48.0 kHz
    Frame rate : 31.250 FPS (1536 SPF)
    Compression mode : Lossy
    Stream size : 102 MiB (2%)
    Title : E-AC3 English
    Language : English
    Service kind : Complete Main
    Default : No
    Forced : No

    Text #1
    ID : 5
    Format : VobSub
    Muxing mode : zlib
    Codec ID : S_VOBSUB
    Codec ID/Info : Picture based subtitle format used on DVDs
    Duration : 1 h 48 min
    Bit rate : 5 473 b/s
    Count of elements : 1181
    Stream size : 4.26 MiB (0%)
    Title : Sub Thai 1080p
    Language : Thai
    Default : No
    Forced : No

    Text #2
    ID : 6
    Format : UTF-8
    Codec ID : S_TEXT/UTF8
    Codec ID/Info : UTF-8 Plain Text
    Duration : 1 h 48 min
    Bit rate : 95 b/s
    Count of elements : 1181
    Stream size : 76.2 KiB (0%)
    Title : Sub Thai SRT
    Language : Thai
    Default : No
    Forced : No

    Text #3
    ID : 7
    Format : PGS
    Muxing mode : zlib
    Codec ID : S_HDMV/PGS
    Codec ID/Info : Picture based subtitle format used on BDs/HD-DVDs
    Duration : 1 h 48 min
    Bit rate : 27.9 kb/s
    Count of elements : 2362
    Stream size : 21.7 MiB (0%)
    Title : Sub Thai PGS
    Language : Thai
    Default : No
    Forced : No

    Text #4
    ID : 8
    Format : PGS
    Muxing mode : zlib
    Codec ID : S_HDMV/PGS
    Codec ID/Info : Picture based subtitle format used on BDs/HD-DVDs
    Duration : 1 h 48 min
    Bit rate : 26.3 kb/s
    Count of elements : 2362
    Stream size : 20.4 MiB (0%)
    Title : Sub Thai PGS NETFLIX
    Language : Thai
    Default : Yes
    Forced : No

    Text #5
    ID : 9
    Format : VobSub
    Muxing mode : zlib
    Codec ID : S_VOBSUB
    Codec ID/Info : Picture based subtitle format used on DVDs
    Duration : 1 h 48 min
    Bit rate : 7 680 b/s
    Count of elements : 1174
    Stream size : 5.96 MiB (0%)
    Title : Sub English
    Language : English
    Default : No
    Forced : No

    Text #6
    ID : 10
    Format : UTF-8
    Codec ID : S_TEXT/UTF8
    Codec ID/Info : UTF-8 Plain Text
    Duration : 1 h 48 min
    Bit rate : 40 b/s
    Count of elements : 1174
    Stream size : 32.3 KiB (0%)
    Title : Sub English
    Language : English
    Default : No
    Forced : No

    Text #7
    ID : 11
    Format : PGS
    Muxing mode : zlib
    Codec ID : S_HDMV/PGS
    Codec ID/Info : Picture based subtitle format used on BDs/HD-DVDs
    Duration : 1 h 48 min
    Bit rate : 27.1 kb/s
    Count of elements : 2348
    Stream size : 21.1 MiB (0%)
    Title : Sub English
    Language : English
    Default : No
    Forced : No





    http://www.filecondo.com/dl.php?f=Icfbaf1KPPnl

  2. #2
    Senior Member
    สมัครเมื่อ
    Jul 2013
    โพสต์
    1,784
    Thanks
    0
    Thanked 0 Times in 0 Posts
    ขอบคุณครับ

+ ตอบกลับกระทู้

ข้อมูลกระทู้

Users Browsing this Thread

ในขณะนี้มี 1 ท่านดูกระทู้อยู่. (0 สมาชิกและ 1 ผู้เยี่ยมชม)

     

กฎการโพสต์ข้อความ

  • ท่าน ไม่สามารถ ตั้งกระทู้ใหม่ได้
  • ท่าน ไม่สามารถ ตอบกระทู้ได้
  • ท่าน ไม่สามารถ แนบไฟล์ได้
  • ท่าน ไม่สามารถ แก้ไขข้อความโพสต์ได้
  • BB code สถานะ เปิด
  • Smilies สถานะ เปิด
  • [IMG] สถานะ เปิด
  • HTML สถานะ ปิด