+ ตอบกลับกระทู้
สรุปผลการค้นหา 1 ถึง 2 จากทั้งหมด 2
  1. #1
    Junior Member
    สมัครเมื่อ
    Dec 2020
    โพสต์
    15
    Thanks
    0
    Thanked 4 Times in 3 Posts

    ☆{[Google Drive]}☆ ซีรีย์เกาหลีชัดระดับ 4K แสดงนำโดย กง ยู Goblin ก็อบลิน คำสาปรักผู้พิทักษ์วิญญาณ [EP1-16END] (รายละเอียดด้านในครับ)

    ☆{[Google Drive]}☆ ซีรีย์เกาหลีชัดระดับ 4K แสดงนำโดย กง ยู Goblin ก็อบลิน คำสาปรักผู้พิทักษ์วิญญาณ




    General
    Unique ID : 232516702340771899689473919689833580105 (0xAEED168499C9B42C5B423A683F9C0649)
    Complete name : Goblin 2016 E01 UHDTV HEVC 10bit 60fps DD2.0.mkv
    Format : Matroska
    Format version : Version 4
    File size : 15.0 GiB
    Duration : 1 h 29 min
    Overall bit rate : 23.9 Mb/s
    Movie name : [UXN] 도깨비.E01.UHDTV.HEVC.10bit.60f-HThoreau
    Encoded date : UTC 2020-10-12 09:32:28
    Writing application : mkvmerge v50.0.0 ('Awakenings') 64-bit
    Writing library : libebml v1.4.0 + libmatroska v1.6.2
    Cover : Yes
    Attachments : Cover.jpg

    Video
    ID : 1
    Format : HEVC
    Format/Info : High Efficiency Video Coding
    Format profile : Main [email protected]@High
    Codec ID : V_MPEGH/ISO/HEVC
    Duration : 1 h 29 min
    Bit rate : 23.3 Mb/s
    Width : 3 840 pixels
    Height : 2 160 pixels
    Display aspect ratio : 16:9
    Frame rate mode : Constant
    Frame rate : 59.940 (60000/1001) FPS
    Standard : Component
    Color space : YUV
    Chroma subsampling : 4:2:0 (Type 0)
    Bit depth : 10 bits
    Bits/(Pixel*Frame) : 0.047
    Stream size : 14.6 GiB (97%)
    Title : [UXN] 도깨비.E01.UHDTV.HEVC.10bit.60f-HThoreau
    Language : Korean
    Default : Yes
    Forced : No
    Color range : Limited
    Color primaries : BT.709
    Transfer characteristics : BT.709
    Matrix coefficients : BT.709

    Audio #1
    ID : 2
    Format : AC-3
    Format/Info : Audio Coding 3
    Commercial name : Dolby Digital
    Codec ID : A_AC3
    Duration : 1 h 29 min
    Bit rate mode : Constant
    Bit rate : 224 kb/s
    Channel(s) : 2 channels
    Channel layout : L R
    Sampling rate : 48.0 kHz
    Frame rate : 31.250 FPS (1536 SPF)
    Compression mode : Lossy
    Delay relative to video : -16 ms
    Stream size : 144 MiB (1%)
    Language : Thai
    Service kind : Complete Main
    Default : Yes
    Forced : No

    Audio #2
    ID : 3
    Format : AC-3
    Format/Info : Audio Coding 3
    Commercial name : Dolby Digital
    Codec ID : A_AC3
    Duration : 1 h 29 min
    Bit rate mode : Constant
    Bit rate : 384 kb/s
    Channel(s) : 2 channels
    Channel layout : L R
    Sampling rate : 48.0 kHz
    Frame rate : 31.250 FPS (1536 SPF)
    Compression mode : Lossy
    Stream size : 246 MiB (2%)
    Title : [UXN] 도깨비.E01.UHDTV
    Language : Korean
    Service kind : Complete Main
    Default : No
    Forced : No

    Text
    ID : 4
    Format : UTF-8
    Codec ID : S_TEXT/UTF8
    Codec ID/Info : UTF-8 Plain Text
    Duration : 1 h 28 min
    Bit rate : 111 b/s
    Count of elements : 812
    Stream size : 72.6 KiB (0%)
    Language : Thai
    Default : Yes
    Forced : No




    EP1
    EP2
    EP3
    EP4
    EP5
    EP6
    EP7
    EP8
    EP9
    EP10
    EP11
    EP12
    EP13
    EP14
    EP15
    EP16

  2. #2
    Junior Member
    สมัครเมื่อ
    May 2019
    โพสต์
    6
    Thanks
    4
    Thanked 0 Times in 0 Posts
    ไฟล์เกินโควต้า ทำสำเนาแล้วก็ยังโหลดไม่ได้ครับ ไม่ทราบว่ารบกวนฝากไฟล์ไว้เว็ปอื่น อย่างเช่น Cornfile , Filecondo ได้รึเปล่าครับ

+ ตอบกลับกระทู้

ข้อมูลกระทู้

Users Browsing this Thread

ในขณะนี้มี 1 ท่านดูกระทู้อยู่. (0 สมาชิกและ 1 ผู้เยี่ยมชม)

     

กฎการโพสต์ข้อความ

  • ท่าน ไม่สามารถ ตั้งกระทู้ใหม่ได้
  • ท่าน ไม่สามารถ ตอบกระทู้ได้
  • ท่าน ไม่สามารถ แนบไฟล์ได้
  • ท่าน ไม่สามารถ แก้ไขข้อความโพสต์ได้
  • BB code สถานะ เปิด
  • Smilies สถานะ เปิด
  • [IMG] สถานะ เปิด
  • HTML สถานะ ปิด