+ ตอบกลับกระทู้
สรุปผลการค้นหา 1 ถึง 2 จากทั้งหมด 2
  1. #1
    Administrators รูปส่วนตัว Duckload.us
    สมัครเมื่อ
    Dec 2010
    โพสต์
    127,911
    Thanks
    7
    Thanked 132,094 Times in 58,485 Posts

    Angry [ฝรั่ง]-[Mini Super-1080p.HQ] Rambo Quadrilogy (1982-2019) - แรมโบ ภาค 1-5 [เสียงไทย 5.1+ฝรั่ง DTS]-[บรรยายไทย+อังกฤษ]-[เสียงไทย+ซับไทย From MASTER+ซับคมชัด]




    1) Rambo : First Blood (1982) - แรมโบ้ 1 นักรบเดนตาย

    https://www.imdb.com/title/tt0083944/
    เรื่องย่อ
    เมื่อนายตำรวจทีสเซิล (ไบรอัน เดนเนฮี) พยายามจับกุมหนุ่มนักโบกรถคนหนึ่ง เขาไม่รู้เลยว่ากำลังเผชิญศึกหนัก เพราะชายพเนจรผู้นี้คือ จอห์น แรมโบ้ (ซิลเวสเตอร์ สตอลโลน) อดีตทหารผ่านศึกเวียดนามเจ้าของเหรียญเชิดชูเกียรติ ผู้เชิ่ยวชาญยุทธวิธีการรบแบบซุ่มโจมตี และเมื่อทีสเซิลออกตามล่าแรมโบ้ที่แหกคุกหนีไปได้ ถึงเวลาแล้วที่แรมโบ้ต้องป้องกันตัวและเอาคืนอย่างสา สม นี่คือภาพยนตร์แอ็คชั่นต้นตำรับ แรมโบ้ ที่สร้างชื่อเสียงกระฉ่อนโลกให้กับสตอลโลน จนกลายเป็นวีรบุรุษแห่งตำนานอีกคนในโลกภาพยนตร์

    Format : Matroska
    Format version : Version 2
    File size : 4.26 GiB
    Duration : 1 h 33 min
    Overall bit rate mode : Variable
    Overall bit rate : 6 540 kb/s
    Movie name : {MINI Super-HQ}[email protected] tHts
    Encoded date : UTC 2019-07-15 13:21:04
    Writing application : mkvmerge v4.9.1 ('Ich will') built on Jul 11 2011 23:53:15
    Writing library : libebml v1.2.1 + libmatroska v1.1.1

    Video
    ID : 1
    Format : AVC
    Format/Info : Advanced Video Codec
    Format profile : [email protected]
    Format settings, CABAC : Yes
    Format settings, RefFrames : 4 frames
    Muxing mode : Header stripping
    Codec ID : V_MPEG4/ISO/AVC
    Duration : 1 h 33 min
    Bit rate mode : Variable
    Bit rate : 5 000 kb/s
    Maximum bit rate : 100.0 Mb/s
    Width : 1 920 pixels
    Height : 816 pixels
    Display aspect ratio : 2.35:1
    Frame rate mode : Constant
    Frame rate : 23.976 FPS
    Color space : YUV
    Chroma subsampling : 4:2:0
    Bit depth : 8 bits
    Scan type : Progressive
    Bits/(Pixel*Frame) : 0.133
    Stream size : 3.19 GiB (75%)
    Title : {Super Mini-HD 1080p HQ} Rambo First Blood Part I 1982 BluRay 1080p DTS x264-จิ้งจอกเก้าหาง
    Writing library : x264 core 130 r2273 b3065e6
    Encoding settings : cabac=1 / ref=4 / deblock=1:0:0 / analyse=0x3:0x133 / me=umh / subme=11 / psy=1 / psy_rd=1.00:0.15 / mixed_ref=1 / me_range=64 / chroma_me=1 / trellis=2 / 8x8dct=1 / cqm=0 / deadzone=21,11 / fast_pskip=1 / chroma_qp_offset=-3 / threads=20 / lookahead_threads=2 / sliced_threads=0 / nr=0 / decimate=1 / interlaced=0 / bluray_compat=0 / constrained_intra=0 / bframes=4 / b_pyramid=2 / b_adapt=2 / b_bias=0 / direct=3 / weightb=1 / open_gop=0 / weightp=2 / keyint=250 / keyint_min=23 / scenecut=40 / intra_refresh=0 / rc_lookahead=100 / rc=2pass / mbtree=1 / bitrate=5000 / ratetol=1.0 / qcomp=0.60 / qpmin=0 / qpmax=69 / qpstep=4 / cplxblur=20.0 / qblur=0.5 / vbv_maxrate=99999 / vbv_bufsize=99999 / nal_hrd=vbr / ip_ratio=1.40 / aq=1:1.00
    Language : English
    Default : Yes
    Forced : No

    Audio #1
    ID : 2
    Format : DTS
    Format/Info : Digital Theater Systems
    Mode : 16
    Format settings, Endianness : Big
    Muxing mode : Header stripping
    Codec ID : A_DTS
    Duration : 1 h 33 min
    Bit rate mode : Constant
    Bit rate : 755 kb/s
    Channel(s) : 6 channels
    Channel positions : Front: L C R, Side: L R, LFE
    Sampling rate : 48.0 kHz
    Frame rate : 93.750 FPS (512 SPF)
    Bit depth : 24 bits
    Compression mode : Lossy
    Stream size : 503 MiB (12%)
    Title : [THAI DTS FROM BLU-RAY MASTER]
    Language : Thai
    Default : Yes
    Forced : No

    Audio #2
    ID : 3
    Format : DTS
    Format/Info : Digital Theater Systems
    Mode : 16
    Format settings, Endianness : Big
    Muxing mode : Header stripping
    Codec ID : A_DTS
    Duration : 1 h 33 min
    Bit rate mode : Constant
    Bit rate : 755 kb/s
    Channel(s) : 6 channels
    Channel positions : Front: L C R, Side: L R, LFE
    Sampling rate : 48.0 kHz
    Frame rate : 93.750 FPS (512 SPF)
    Bit depth : 24 bits
    Compression mode : Lossy
    Stream size : 503 MiB (12%)
    Title : [ENG DTS FROM BLU-RAY MASTER]
    Language : English
    Default : No
    Forced : No

    Text #1
    ID : 4
    Format : VobSub
    Muxing mode : zlib
    Codec ID : S_VOBSUB
    Codec ID/Info : Picture based subtitle format used on DVDs
    Title : [SUB THAI 480P FROM BLU-RAY]
    Language : Thai
    Default : No
    Forced : No

    Text #2
    ID : 5
    Format : VobSub
    Muxing mode : zlib
    Codec ID : S_VOBSUB
    Codec ID/Info : Picture based subtitle format used on DVDs
    Title : [SUB THAI 1080P FROM BLU-RAY]
    Language : Thai
    Default : No
    Forced : No

    Text #3
    ID : 6
    Format : PGS
    Muxing mode : zlib
    Codec ID : S_HDMV/PGS
    Codec ID/Info : Picture based subtitle format used on BDs/HD-DVDs
    Title : [SUB THAI PGS FROM BLU-RAY]
    Language : Thai
    Default : No
    Forced : No

    Text #4
    ID : 7
    Format : PGS
    Muxing mode : zlib
    Codec ID : S_HDMV/PGS
    Codec ID/Info : Picture based subtitle format used on BDs/HD-DVDs
    Title : [SUB THAI PGS FROM BLU-RAY] UNDER
    Language : Thai
    Default : No
    Forced : No

    Text #5
    ID : 8
    Format : PGS
    Muxing mode : zlib
    Codec ID : S_HDMV/PGS
    Codec ID/Info : Picture based subtitle format used on BDs/HD-DVDs
    Title : [SUB ENG PGS FROM BLU-RAY]
    Language : Thai
    Default : No
    Forced : No

    Text #6
    ID : 9
    Format : VobSub
    Muxing mode : zlib
    Codec ID : S_VOBSUB
    Codec ID/Info : Picture based subtitle format used on DVDs
    Title : [SUB ENG 480P FROM BLU-RAY]
    Language : English
    Default : No
    Forced : No




    2) Rambo : First Blood Part II (1985) - แรมโบ้ นักรบเดนตาย 2

    https://www.imdb.com/title/tt0089880/

    เรื่องย่อ
    แรมโบ้ 2 พร้อมพาคุณลุยความมันระห่ำไปกับปฏิบัติการพิเศษของอด ีตทหารผ่านศึก จอห์น แรมโบ้ หลังจากที่เขาถูกปล่อยตัวออกจากคุกและกองทัพได้ส่งตั วเขาไปเวียดนาม เพื่อตามหาทหารอเมริกันกลุ่มหนึ่งที่ยังติดค้างอยู่ใ นประเทศนี้ในฐานะนักโทษเชลยสงครามซึ่งอาจถูกกักขังอย ู่ ณ ที่ใดที่หนึ่ง แผนการคือโดดร่มลงไปในเขตอันตราย พร้อมคำสั่ง ห้ามลงมือกับศัตรูโดยเด็ดขาด แค่ถ่ายรูปกลับมาเท่านั้น แต่คนอย่างแรมโบ้มีหรือจะทำแค่นั้น!

    Format : Matroska
    Format version : Version 2
    File size : 4.24 GiB
    Duration : 1 h 35 min
    Overall bit rate mode : Variable
    Overall bit rate : 6 325 kb/s
    Movie name : {MINI Super-HQ}[email protected] tHts
    Encoded date : UTC 2019-07-15 13:24:33
    Writing application : mkvmerge v4.9.1 ('Ich will') built on Jul 11 2011 23:53:15
    Writing library : libebml v1.2.1 + libmatroska v1.1.1

    Video
    ID : 1
    Format : AVC
    Format/Info : Advanced Video Codec
    Format profile : [email protected]
    Format settings, CABAC : Yes
    Format settings, RefFrames : 4 frames
    Muxing mode : Header stripping
    Codec ID : V_MPEG4/ISO/AVC
    Duration : 1 h 35 min
    Bit rate mode : Variable
    Bit rate : 4 800 kb/s
    Maximum bit rate : 100.0 Mb/s
    Width : 1 920 pixels
    Height : 816 pixels
    Display aspect ratio : 2.35:1
    Frame rate mode : Constant
    Frame rate : 23.976 FPS
    Color space : YUV
    Chroma subsampling : 4:2:0
    Bit depth : 8 bits
    Scan type : Progressive
    Bits/(Pixel*Frame) : 0.128
    Stream size : 3.14 GiB (74%)
    Title : {Super Mini-HD 1080p HQ} Rambo First Blood Part II 1985 BluRay 1080p DTS x264-จิ้งจอกเก้าหาง
    Writing library : x264 core 130 r2273 b3065e6
    Encoding settings : cabac=1 / ref=4 / deblock=1:0:0 / analyse=0x3:0x133 / me=umh / subme=11 / psy=1 / psy_rd=1.00:0.15 / mixed_ref=1 / me_range=64 / chroma_me=1 / trellis=2 / 8x8dct=1 / cqm=0 / deadzone=21,11 / fast_pskip=1 / chroma_qp_offset=-3 / threads=16 / lookahead_threads=1 / sliced_threads=0 / nr=0 / decimate=1 / interlaced=0 / bluray_compat=0 / constrained_intra=0 / bframes=4 / b_pyramid=2 / b_adapt=2 / b_bias=0 / direct=3 / weightb=1 / open_gop=0 / weightp=2 / keyint=250 / keyint_min=23 / scenecut=40 / intra_refresh=0 / rc_lookahead=100 / rc=2pass / mbtree=1 / bitrate=4800 / ratetol=1.0 / qcomp=0.60 / qpmin=0 / qpmax=69 / qpstep=4 / cplxblur=20.0 / qblur=0.5 / vbv_maxrate=99999 / vbv_bufsize=99999 / nal_hrd=vbr / ip_ratio=1.40 / aq=1:1.00
    Language : English
    Default : Yes
    Forced : No

    Audio #1
    ID : 2
    Format : DTS
    Format/Info : Digital Theater Systems
    Mode : 16
    Format settings, Endianness : Big
    Muxing mode : Header stripping
    Codec ID : A_DTS
    Duration : 1 h 35 min
    Bit rate mode : Constant
    Bit rate : 755 kb/s
    Channel(s) : 6 channels
    Channel positions : Front: L C R, Side: L R, LFE
    Sampling rate : 48.0 kHz
    Frame rate : 93.750 FPS (512 SPF)
    Bit depth : 24 bits
    Compression mode : Lossy
    Stream size : 518 MiB (12%)
    Title : [THAI DTS FROM BLU-RAY MASTER]
    Language : Thai
    Default : Yes
    Forced : No

    Audio #2
    ID : 3
    Format : DTS
    Format/Info : Digital Theater Systems
    Mode : 16
    Format settings, Endianness : Big
    Muxing mode : Header stripping
    Codec ID : A_DTS
    Duration : 1 h 35 min
    Bit rate mode : Constant
    Bit rate : 755 kb/s
    Channel(s) : 6 channels
    Channel positions : Front: L C R, Side: L R, LFE
    Sampling rate : 48.0 kHz
    Frame rate : 93.750 FPS (512 SPF)
    Bit depth : 24 bits
    Compression mode : Lossy
    Stream size : 518 MiB (12%)
    Title : [ENG DTS FROM BLU-RAY MASTER]
    Language : English
    Default : No
    Forced : No

    Text #1
    ID : 4
    Format : VobSub
    Muxing mode : zlib
    Codec ID : S_VOBSUB
    Codec ID/Info : Picture based subtitle format used on DVDs
    Title : [SUB THAI 480P FROM BLU-RAY]
    Language : Thai
    Default : No
    Forced : No

    Text #2
    ID : 5
    Format : VobSub
    Muxing mode : zlib
    Codec ID : S_VOBSUB
    Codec ID/Info : Picture based subtitle format used on DVDs
    Title : [SUB THAI 1080P FROM BLU-RAY]
    Language : Thai
    Default : No
    Forced : No

    Text #3
    ID : 6
    Format : PGS
    Muxing mode : zlib
    Codec ID : S_HDMV/PGS
    Codec ID/Info : Picture based subtitle format used on BDs/HD-DVDs
    Title : [SUB THAI PGS FROM BLU-RAY]
    Language : Thai
    Default : No
    Forced : No

    Text #4
    ID : 7
    Format : PGS
    Muxing mode : zlib
    Codec ID : S_HDMV/PGS
    Codec ID/Info : Picture based subtitle format used on BDs/HD-DVDs
    Title : [SUB THAI PGS FROM BLU-RAY] UNDER
    Language : Thai
    Default : No
    Forced : No

    Text #5
    ID : 8
    Format : PGS
    Muxing mode : zlib
    Codec ID : S_HDMV/PGS
    Codec ID/Info : Picture based subtitle format used on BDs/HD-DVDs
    Title : [SUB ENG PGS FROM BLU-RAY]
    Language : English
    Default : No
    Forced : No

    Text #6
    ID : 9
    Format : VobSub
    Muxing mode : zlib
    Codec ID : S_VOBSUB
    Codec ID/Info : Picture based subtitle format used on DVDs
    Title : [SUB ENG 480P FROM BLU-RAY]
    Language : English
    Default : No
    Forced : No




    3) Rambo III (1988) - แรมโบ้ นักรบเดนตาย 3

    https://www.imdb.com/title/tt0095956/

    เรื่องย่อ
    พันเอกแซมมวล ทร็อตแมน (ริชาร์ด เคร็นน่า) อดีตผู้บังคับบัญชาของจอห์น แรมโบ้ ได้ขอความช่วยเหลือจากแรมโบ้ (ซิลเวสเตอร์ สตอลโลน) ให้เป็นผู้ฝึกสอนกองกำลังกบฎมูจาฮิดีน เพื่อต่อสู้กับทหารโซเวียตที่เข้ามารุกรานอัฟกานิสถา น แต่แรมโบ้ที่ในเวลานี้ใช้ชีวิตอยู่อย่างสงบในประเทศไ ทยได้บอกปฏิเสธ จนเมื่อทร็อตแมนถูกทหารฝ่ายศัตรูจับตัวไป เป็นหน้าที่ของแรมโบ้ที่ต้องหวนคืนสู่สนามรบอีกครั้ง เพื่อช่วยเหลือเจ้านายเก่าของเขาให้ปลอดภัย

    Format : Matroska
    Format version : Version 2
    File size : 4.24 GiB
    Duration : 1 h 41 min
    Overall bit rate mode : Variable
    Overall bit rate : 5 975 kb/s
    Movie name : {MINI Super-HQ}[email protected] tHts
    Encoded date : UTC 2019-07-15 13:33:18
    Writing application : mkvmerge v4.9.1 ('Ich will') built on Jul 11 2011 23:53:15
    Writing library : libebml v1.2.1 + libmatroska v1.1.1

    Video
    ID : 1
    Format : AVC
    Format/Info : Advanced Video Codec
    Format profile : [email protected]
    Format settings, CABAC : Yes
    Format settings, RefFrames : 4 frames
    Muxing mode : Header stripping
    Codec ID : V_MPEG4/ISO/AVC
    Duration : 1 h 41 min
    Bit rate mode : Variable
    Bit rate : 4 450 kb/s
    Maximum bit rate : 100.0 Mb/s
    Width : 1 920 pixels
    Height : 816 pixels
    Display aspect ratio : 2.35:1
    Frame rate mode : Constant
    Frame rate : 23.976 FPS
    Color space : YUV
    Chroma subsampling : 4:2:0
    Bit depth : 8 bits
    Scan type : Progressive
    Bits/(Pixel*Frame) : 0.118
    Stream size : 3.09 GiB (73%)
    Title : {Super Mini-HD 1080p HQ} Rambo III 1988 BluRay 1080p DTS x264-จิ้งจอกเก้าหาง
    Writing library : x264 core 130 r2273 b3065e6
    Encoding settings : cabac=1 / ref=4 / deblock=1:0:0 / analyse=0x3:0x133 / me=umh / subme=11 / psy=1 / psy_rd=1.00:0.15 / mixed_ref=1 / me_range=64 / chroma_me=1 / trellis=2 / 8x8dct=1 / cqm=0 / deadzone=21,11 / fast_pskip=1 / chroma_qp_offset=-3 / threads=16 / lookahead_threads=1 / sliced_threads=0 / nr=0 / decimate=1 / interlaced=0 / bluray_compat=0 / constrained_intra=0 / bframes=4 / b_pyramid=2 / b_adapt=2 / b_bias=0 / direct=3 / weightb=1 / open_gop=0 / weightp=2 / keyint=250 / keyint_min=23 / scenecut=40 / intra_refresh=0 / rc_lookahead=100 / rc=2pass / mbtree=1 / bitrate=4450 / ratetol=1.0 / qcomp=0.60 / qpmin=0 / qpmax=69 / qpstep=4 / cplxblur=20.0 / qblur=0.5 / vbv_maxrate=99999 / vbv_bufsize=99999 / nal_hrd=vbr / ip_ratio=1.40 / aq=1:1.00
    Language : English
    Default : Yes
    Forced : No

    Audio #1
    ID : 2
    Format : DTS
    Format/Info : Digital Theater Systems
    Mode : 16
    Format settings, Endianness : Big
    Muxing mode : Header stripping
    Codec ID : A_DTS
    Duration : 1 h 41 min
    Bit rate mode : Constant
    Bit rate : 755 kb/s
    Channel(s) : 6 channels
    Channel positions : Front: L C R, Side: L R, LFE
    Sampling rate : 48.0 kHz
    Frame rate : 93.750 FPS (512 SPF)
    Bit depth : 24 bits
    Compression mode : Lossy
    Stream size : 549 MiB (13%)
    Title : [THAI DTS FROM BLU-RAY MASTER]
    Language : Thai
    Default : Yes
    Forced : No

    Audio #2
    ID : 3
    Format : DTS
    Format/Info : Digital Theater Systems
    Mode : 16
    Format settings, Endianness : Big
    Muxing mode : Header stripping
    Codec ID : A_DTS
    Duration : 1 h 41 min
    Bit rate mode : Constant
    Bit rate : 755 kb/s
    Channel(s) : 6 channels
    Channel positions : Front: L C R, Side: L R, LFE
    Sampling rate : 48.0 kHz
    Frame rate : 93.750 FPS (512 SPF)
    Bit depth : 24 bits
    Compression mode : Lossy
    Stream size : 549 MiB (13%)
    Title : [ENG DTS FROM BLU-RAY MASTER]
    Language : English
    Default : No
    Forced : No

    Text #1
    ID : 4
    Format : VobSub
    Muxing mode : zlib
    Codec ID : S_VOBSUB
    Codec ID/Info : Picture based subtitle format used on DVDs
    Title : [SUB THAI 480P FROM BLU-RAY]
    Language : Thai
    Default : No
    Forced : No

    Text #2
    ID : 5
    Format : VobSub
    Muxing mode : zlib
    Codec ID : S_VOBSUB
    Codec ID/Info : Picture based subtitle format used on DVDs
    Title : [SUB THAI 1080P FROM BLU-RAY]
    Language : Thai
    Default : No
    Forced : No

    Text #3
    ID : 6
    Format : PGS
    Muxing mode : zlib
    Codec ID : S_HDMV/PGS
    Codec ID/Info : Picture based subtitle format used on BDs/HD-DVDs
    Title : [SUB THAI PGS FROM BLU-RAY]
    Language : Thai
    Default : No
    Forced : No

    Text #4
    ID : 7
    Format : PGS
    Muxing mode : zlib
    Codec ID : S_HDMV/PGS
    Codec ID/Info : Picture based subtitle format used on BDs/HD-DVDs
    Title : [SUB THAI PGS FROM BLU-RAY] UNDER
    Language : Thai
    Default : No
    Forced : No

    Text #5
    ID : 8
    Format : PGS
    Muxing mode : zlib
    Codec ID : S_HDMV/PGS
    Codec ID/Info : Picture based subtitle format used on BDs/HD-DVDs
    Title : [SUB ENG PGS FROM BLU-RAY]
    Language : English
    Default : No
    Forced : No

    Text #6
    ID : 9
    Format : VobSub
    Muxing mode : zlib
    Codec ID : S_VOBSUB
    Codec ID/Info : Picture based subtitle format used on DVDs
    Title : [SUB ENG 480P FROM BLU-RAY]
    Language : English
    Default : No
    Forced : No




    4) Rambo IV : The Fight Continues (2008) - แรมโบ้ 4 นักรบพันธุ์เดือด

    https://www.imdb.com/title/tt0462499/

    เรื่องย่อ
    หลังจากปลดประจำการ จอห์น แรมโบ้ (ซิลเวสเตอร์ สตอลโลน) อาศัยอยู่อย่างสันโดษทางภาคเหนือของประเทศไทยโดยทำงา นอยู่บนเรือบดที่ล่องอยู่ในแม่น้ำสาละวินแถบชายแดนไท ย-พม่า จนกระทั่งตัวแทนของกลุ่มมิชชันนารี่ต้องการ ไกด์แม่น้ำชาวอเมริกัน ในการนำทาง เพื่อนำยา และเครื่องอุปโภค บริโภค ไปมอบให้กับค่ายอพยพ แรมโบ้จึงได้รับการติดต่อให้ทำหน้าที่นี้ เขาปฏิเสธในตอนแรก แต่สุดท้ายก็ยอมนำกลุ่มมิชชันนารี่ไปส่งยังจุดที่พวก เขาต้องการ ไม่ถึงสองอาทิตย์ต่อมาเขาได้รู้ว่ากลุ่มมิชชันนารี่ กลุ่มนั้นไม่ได้เดินทางกลับมา บาทหลวงอาร์เธอร์ มาร์ชจึงจ้างกลุ่มทหารรับจ้างเพื่อให้ช่วยเหลือในเหต ุการณ์ครั้งนี้ แรมโบ้ตัดสินใจที่จะเป็นผู้นำทางทหารรับจ้างเหล่านั้ นล่องไปตามแม่น้ำเพื่อช่วยเหลือผู้บริสุทธิ์ และนั่นคือจุดเริ่มต้นของการก้าวเข้าสู่สงครามการฆ่า อีกครั้ง!

    Format : Matroska
    Format version : Version 2
    File size : 4.21 GiB
    Duration : 1 h 31 min
    Overall bit rate mode : Variable
    Overall bit rate : 6 591 kb/s
    Encoded date : UTC 2019-07-15 13:36:57
    Writing application : mkvmerge v4.9.1 ('Ich will') built on Jul 11 2011 23:53:15
    Writing library : libebml v1.2.1 + libmatroska v1.1.1

    Video
    ID : 1
    Format : AVC
    Format/Info : Advanced Video Codec
    Format profile : [email protected]
    Format settings, CABAC : Yes
    Format settings, RefFrames : 4 frames
    Muxing mode : Header stripping
    Codec ID : V_MPEG4/ISO/AVC
    Duration : 1 h 31 min
    Bit rate mode : Variable
    Bit rate : 5 350 kb/s
    Maximum bit rate : 100.0 Mb/s
    Width : 1 920 pixels
    Height : 800 pixels
    Display aspect ratio : 2.40:1
    Frame rate mode : Constant
    Frame rate : 23.976 FPS
    Color space : YUV
    Chroma subsampling : 4:2:0
    Bit depth : 8 bits
    Scan type : Progressive
    Bits/(Pixel*Frame) : 0.145
    Stream size : 3.36 GiB (80%)
    Title : {Super Mini-HD 1080p HQ} Rambo IV 2008 BluRay 1080p DTS x264-จิ้งจอกเก้าหาง
    Writing library : x264 core 130 r2273 b3065e6
    Encoding settings : cabac=1 / ref=4 / deblock=1:0:0 / analyse=0x3:0x133 / me=umh / subme=11 / psy=1 / psy_rd=1.00:0.15 / mixed_ref=1 / me_range=64 / chroma_me=1 / trellis=2 / 8x8dct=1 / cqm=0 / deadzone=21,11 / fast_pskip=1 / chroma_qp_offset=-3 / threads=16 / lookahead_threads=1 / sliced_threads=0 / nr=0 / decimate=1 / interlaced=0 / bluray_compat=0 / constrained_intra=0 / bframes=4 / b_pyramid=2 / b_adapt=2 / b_bias=0 / direct=3 / weightb=1 / open_gop=0 / weightp=2 / keyint=250 / keyint_min=23 / scenecut=40 / intra_refresh=0 / rc_lookahead=100 / rc=2pass / mbtree=1 / bitrate=5350 / ratetol=1.0 / qcomp=0.60 / qpmin=0 / qpmax=69 / qpstep=4 / cplxblur=20.0 / qblur=0.5 / vbv_maxrate=99999 / vbv_bufsize=99999 / nal_hrd=vbr / ip_ratio=1.40 / aq=1:1.00
    Language : English
    Default : Yes
    Forced : No

    Audio #1
    ID : 2
    Format : AC-3
    Format/Info : Audio Coding 3
    Format settings, Endianness : Big
    Muxing mode : Header stripping
    Codec ID : A_AC3
    Duration : 1 h 31 min
    Bit rate mode : Constant
    Bit rate : 448 kb/s
    Channel(s) : 6 channels
    Channel positions : Front: L C R, Side: L R, LFE
    Sampling rate : 48.0 kHz
    Frame rate : 31.250 FPS (1536 SPF)
    Bit depth : 16 bits
    Compression mode : Lossy
    Stream size : 293 MiB (7%)
    Title : [THAI AC3 FROM DVD MASTER]
    Language : Thai
    Service kind : Complete Main
    Default : Yes
    Forced : No

    Audio #2
    ID : 3
    Format : DTS
    Format/Info : Digital Theater Systems
    Mode : 16
    Format settings, Endianness : Big
    Muxing mode : Header stripping
    Codec ID : A_DTS
    Duration : 1 h 31 min
    Bit rate mode : Constant
    Bit rate : 755 kb/s
    Channel(s) : 6 channels
    Channel positions : Front: L C R, Side: L R, LFE
    Sampling rate : 48.0 kHz
    Frame rate : 93.750 FPS (512 SPF)
    Bit depth : 24 bits
    Compression mode : Lossy
    Stream size : 494 MiB (11%)
    Title : ENG DTS
    Language : English
    Default : No
    Forced : No

    Text #1
    ID : 4
    Format : VobSub
    Muxing mode : zlib
    Codec ID : S_VOBSUB
    Codec ID/Info : Picture based subtitle format used on DVDs
    Title : [SUB THAI 480P FROM DVD MASTER] Freesia UPC
    Language : Thai
    Default : No
    Forced : No

    Text #2
    ID : 5
    Format : VobSub
    Muxing mode : zlib
    Codec ID : S_VOBSUB
    Codec ID/Info : Picture based subtitle format used on DVDs
    Title : [SUB THAI 480P FROM DVD MASTER] Angsana UPC
    Language : Thai
    Default : No
    Forced : No

    Text #3
    ID : 6
    Format : VobSub
    Muxing mode : zlib
    Codec ID : S_VOBSUB
    Codec ID/Info : Picture based subtitle format used on DVDs
    Title : [SUB THAI 1080P FROM DVD MASTER] TH Sarabun
    Language : Thai
    Default : No
    Forced : No

    Text #4
    ID : 7
    Format : PGS
    Muxing mode : zlib
    Codec ID : S_HDMV/PGS
    Codec ID/Info : Picture based subtitle format used on BDs/HD-DVDs
    Title : THAI PGS TH Sarabun
    Language : Thai
    Default : No
    Forced : No

    Text #5
    ID : 8
    Format : PGS
    Muxing mode : zlib
    Codec ID : S_HDMV/PGS
    Codec ID/Info : Picture based subtitle format used on BDs/HD-DVDs
    Title : THAI PGS Angsana UPC
    Language : Thai
    Default : No
    Forced : No

    Text #6
    ID : 9
    Format : PGS
    Muxing mode : zlib
    Codec ID : S_HDMV/PGS
    Codec ID/Info : Picture based subtitle format used on BDs/HD-DVDs
    Title : THAI PGS TH Sarabun UNDER
    Language : Thai
    Default : No
    Forced : No

    Text #7
    ID : 10
    Format : PGS
    Muxing mode : zlib
    Codec ID : S_HDMV/PGS
    Codec ID/Info : Picture based subtitle format used on BDs/HD-DVDs
    Title : ENG PGS
    Language : English
    Default : No
    Forced : No

    Text #8
    ID : 11
    Format : UTF-8
    Codec ID : S_TEXT/UTF8
    Codec ID/Info : UTF-8 Plain Text
    Title : ENG SRT
    Language : English
    Default : No
    Forced : No




    5) Rambo V : Last Blood (2019) - แรมโบ้ 5 นักรบคนสุดท้าย

    https://www.imdb.com/title/tt0462499/

    เรื่องย่อ
    เรื่องราวที่ จอห์น แรมโบ้ ต้องรับมือกับโรคเครียดรุนแรงหลังเจอเหตุการณ์สะเทือ นขวัญ (PTSD) ขณะที่เขาพักอาศัยอยู่ที่ฟาร์มเลี้ยงสัตว์ในแอริโซนา เขาพยายามที่จะยืนหยัดด้วยการทำงานแบบชิลล์ ๆ ที่ไหนก็ตามที่เขาจะสามารถทำได้ แล้วไม่นานเพื่อนและผู้จัดการทรัพย์สินของเขา มาเรีย ก็มาบอกให้เขารู้ว่าหลานสาวของเธอหายตัวไปหลังจากเดิ นทางไปเม็กซิโกเพื่อไปร่วมงานปาร์ตี้ ดังนั้นจอห์นจึงตัดสินใจออกเดินทางไปยังแดนใต้เพื่อต ามหาเด็กสาวคนนั้น แต่แล้วการสืบหามันก็ได้พาเขาดำดิ่งลงไปสู่เส้นทางนร กที่แสนอันตราย แรมโบ้ต้องเปิดโปงวงจรค้าประเวณีผิดกฏหมาย เขาต้องมาร่วมมือกับนักข่าวคนหนึ่งที่น้องสาวของเขาก ็ถูกลักพาตัวไปเช่นกัน แรมโบ้ต้องปรับใช้ทักษะทั้งหมดที่เขามีเพื่อปกป้องเด ็กสาวเหล่านั้น แล้วก็เพื่อที่จะปราบแก๊งค์อาชญากรชั่วร้ายแก๊งค์นั้ นให้สิ้นซาก
    Format : Matroska
    Format version : Version 2
    File size : 3.84 GiB
    Duration : 1 h 40 min
    Overall bit rate : 5 444 kb/s
    Movie name : {MINI Super-HQ}_Rambo.Last.Blood.2019.1080p.BrRip.DTS.x264_ZEZ [email protected]
    Encoded date : UTC 2020-12-23 13:16:19
    Writing application : mkvmerge v4.9.1 ('Ich will') built on Jul 11 2011 23:53:15
    Writing library : libebml v1.2.1 + libmatroska v1.1.1

    Video
    ID : 1
    Format : AVC
    Format/Info : Advanced Video Codec
    Format profile : [email protected]
    Format settings, CABAC : Yes
    Format settings, RefFrames : 4 frames
    Muxing mode : Header stripping
    Codec ID : V_MPEG4/ISO/AVC
    Duration : 1 h 40 min
    Bit rate : 4 249 kb/s
    Width : 1 920 pixels
    Height : 804 pixels
    Display aspect ratio : 2.40:1
    Frame rate mode : Constant
    Frame rate : 23.976 (24000/1001) FPS
    Color space : YUV
    Chroma subsampling : 4:2:0
    Bit depth : 8 bits
    Scan type : Progressive
    Bits/(Pixel*Frame) : 0.115
    Stream size : 2.91 GiB (76%)
    Title : {MINI Super-HQ}_Rambo.Last.Blood.2019.1080p.BrRip.DTS.x264_ZEZ [email protected]
    Writing library : x264 core 146 r2538 121396c
    Encoding settings : cabac=1 / ref=5 / deblock=1:-3:-3 / analyse=0x3:0x133 / me=tesa / subme=11 / psy=1 / psy_rd=1.00:0.15 / mixed_ref=1 / me_range=48 / chroma_me=1 / trellis=2 / 8x8dct=1 / cqm=0 / deadzone=21,11 / fast_pskip=1 / chroma_qp_offset=-3 / threads=54 / lookahead_threads=4 / sliced_threads=0 / nr=0 / decimate=1 / interlaced=0 / bluray_compat=1 / constrained_intra=0 / bframes=3 / b_pyramid=1 / b_adapt=2 / b_bias=0 / direct=3 / weightb=1 / open_gop=0 / weightp=1 / keyint=250 / keyint_min=1 / scenecut=40 / intra_refresh=0 / rc_lookahead=60 / rc=2pass / mbtree=1 / bitrate=4249 / ratetol=1.0 / qcomp=0.60 / qpmin=0 / qpmax=69 / qpstep=4 / cplxblur=20.0 / qblur=0.5 / ip_ratio=1.40 / aq=1:1.30
    Language : English
    Default : Yes
    Forced : No

    Audio #1
    ID : 2
    Format : AC-3
    Format/Info : Audio Coding 3
    Format settings, Endianness : Big
    Muxing mode : Header stripping
    Codec ID : A_AC3
    Duration : 1 h 40 min
    Bit rate mode : Constant
    Bit rate : 448 kb/s
    Channel(s) : 6 channels
    Channel positions : Front: L C R, Side: L R, LFE
    Sampling rate : 48.0 kHz
    Frame rate : 31.250 FPS (1536 SPF)
    Bit depth : 16 bits
    Compression mode : Lossy
    Stream size : 324 MiB (8%)
    Title : Thai DVD Master
    Language : Thai
    Service kind : Complete Main
    Default : Yes
    Forced : Yes

    Audio #2
    ID : 3
    Format : DTS
    Format/Info : Digital Theater Systems
    Mode : 16
    Format settings, Endianness : Big
    Muxing mode : Header stripping
    Codec ID : A_DTS
    Duration : 1 h 40 min
    Bit rate mode : Constant
    Bit rate : 755 kb/s
    Channel(s) : 6 channels
    Channel positions : Front: L C R, Side: L R, LFE
    Sampling rate : 48.0 kHz
    Frame rate : 93.750 FPS (512 SPF)
    Bit depth : 24 bits
    Compression mode : Lossy
    Stream size : 545 MiB (14%)
    Title : English DTS
    Language : English
    Default : No
    Forced : No

    Text #1
    ID : 4
    Format : VobSub
    Muxing mode : zlib
    Codec ID : S_VOBSUB
    Codec ID/Info : Picture based subtitle format used on DVDs
    Title : Thai 1080p
    Language : Thai
    Default : Yes
    Forced : Yes

    Text #2
    ID : 5
    Format : VobSub
    Muxing mode : zlib
    Codec ID : S_VOBSUB
    Codec ID/Info : Picture based subtitle format used on DVDs
    Title : Thai 1080p Yellow
    Language : Thai
    Default : No
    Forced : No

    Text #3
    ID : 6
    Format : PGS
    Muxing mode : zlib
    Codec ID : S_HDMV/PGS
    Codec ID/Info : Picture based subtitle format used on BDs/HD-DVDs
    Title : Thai PGS
    Language : Thai
    Default : No
    Forced : No

    Text #4
    ID : 7
    Format : PGS
    Muxing mode : zlib
    Codec ID : S_HDMV/PGS
    Codec ID/Info : Picture based subtitle format used on BDs/HD-DVDs
    Title : English
    Language : English
    Default : No
    Forced : No




    01-[Mini Super-1080p.HQ] Rambo First Blood Part I (1982) BrRip.DTS.x264-จิ้งจอกเก้าหาง.mkv - 4.3 GB
    02-[Mini Super-1080p.HQ] Rambo First Blood Part II (1985) BrRip.DTS.x264-จิ้งจอกเก้าหาง.mkv - 4.2 GB
    03-[Mini Super-1080p.HQ] Rambo III (1988) BrRip.DTS.x264-จิ้งจอกเก้าหาง.mkv - 4.2 GB
    04-[Mini Super-1080p.HQ] Rambo IV (2008) BrRip.DTS.x264-จิ้งจอกเก้าหาง.mkv - 4.2 GB
    05-[Mini Super-1080p.HQ] Rambo Last Blood (2019) [email protected] - 3.8 GB

  2. The Following 2 Users Say Thank You to Duckload.us For This Useful Post:

    thatsna4555555 (01-25-2021), Wesker_TOT (06-05-2021)

  3. #2
    Senior Member
    สมัครเมื่อ
    Dec 2013
    โพสต์
    2,997
    Thanks
    4,916
    Thanked 0 Times in 0 Posts
    ขอบคุณครับ...

+ ตอบกลับกระทู้

ข้อมูลกระทู้

Users Browsing this Thread

ในขณะนี้มี 1 ท่านดูกระทู้อยู่. (0 สมาชิกและ 1 ผู้เยี่ยมชม)

     

กฎการโพสต์ข้อความ

  • ท่าน ไม่สามารถ ตั้งกระทู้ใหม่ได้
  • ท่าน ไม่สามารถ ตอบกระทู้ได้
  • ท่าน ไม่สามารถ แนบไฟล์ได้
  • ท่าน ไม่สามารถ แก้ไขข้อความโพสต์ได้
  • BB code สถานะ เปิด
  • Smilies สถานะ เปิด
  • [IMG] สถานะ เปิด
  • HTML สถานะ ปิด