+ ตอบกลับกระทู้
สรุปผลการค้นหา 1 ถึง 3 จากทั้งหมด 3
  1. #1
    Administrators รูปส่วนตัว Duckload.us
    สมัครเมื่อ
    Dec 2010
    โพสต์
    122,358
    Thanks
    7
    Thanked 127,645 Times in 56,901 Posts

    Lightbulb [ญี่ปุ่น]-One Piece Season 12-Encode.H.264.1080p. [rip from Master]-[พากย์ไทย]



    One Piece Season 12
    Island of Women Ep.408-421

    วันพีช เป็นเรื่องในยุคของโจรสลัดและฝ่ายทหารเรือ เพื่อค้นหา สมบัติที่เรียกว่า วันพีซ โดยผู้ที่มีวันพีซอยู่นั้นคือเจ้าแห่งโจรสลัด โดยผู้ที่เคยครอบครองวันพีซนั้นมีอยู่คนเดียวตามที่เ ปิดเผยมาคือ เจ้าแห่งโจรสลัด โกลด์ ดี โรเจอร์

    มังกี้ ดี ลูฟี่ ลูกชายของนักปฏิวัติ มังกี้ ดี ดราก้อน ได้พบกับ โจรสลัด แชงคูส(ตอนนี้เป็น 1 ใน 4 จักรพรรดิ) และเผลอกิน ผลปีศาจ ทำให้ร่างกายมีคุณสมบัติเป็นยาง โดยข้อแม้ของผู้กิน ผลปีศาจ จะโดนทะเลรังเกียจ ไม่สามารถว่ายน้ำได้และหมดพลังที่ได้รับมา ลูฟี่ได้เริ่มต้นการผจญภัยออกเรือเดินทางไปทะเลแกรนด ์ไลน์ โดยใช้เรือ ชื่อ โกอิ้งแมรี่ และรวบรวมลูกเรือ คือ โรโรโนอา โซโล นามิ อุซป ซันจิ โทนี่ โทนี่ ช็อปเปอร์ นิโค โรบิน แฟรงกี้ บรู๊คพวกลูฟี่ได้แล่นเรือจากอิสท์ บลูเข้ามาในแกรนด์ไลน์และโดยใช้ล็อกโพส อุปกรณ์นำทางในการเดินเรื่องเพื่อค้นหาสมบัติตามเกาะ ต่างๆ ทั้ง อาณาจักรดรัมอาณาจักรทะลทรายอลาบาสต้า หรือแม้แต่ จายา เกาะแห่งท้องฟ้าสกายเปีย และต้องผ่านด่านของ ลองริง ลองแลนด์ จนได้เดินทางมาถึง วอเตอร์เซเว่นเพื่อสร้างเรื่อลำใหม่เธาซันด์ซันนี่ โดยนักต่อเรือแห่ง วอเตอร์เซเว่น และรับลูกเรือ แฟรงกี้
    หลังจากเดินทางออกมาจาก วอเตอร์เซเว่น ก็เข้ามาใน ฟลอเรี่ยน ไทรแองเกิ้ล หมอกที่ไม่มีวันจาง ต้องหนีออกจาก เรือของ เจ็ดเทพโจรสลัด เก็กโค โมเรีย ที่มีชื่อว่า ทริลเลอร์ บาร์คและรับลูกเรือ บรู๊ค จนสามารถเดินทางต่อไปยังหมู่เกาะชาบอนดี้ (ซึ่งผู้ที่จะไปโลกใหม่นั้นจะต้องมาเคลือบเรือที่นี่ ก่อนแล้วจึงเดินทางไปเกาะเงือกเพื่อที่จะไปยังอีกฝั่ งของ เรดไลน์ ที่กั้นอยู่) ได้ถูก เจ็ดเทพโจรสลัด บาโซโลมิว คุมะ แยกกลุ่มโจรสลัดหมวกฟางออกจากกัน และกระจายออกไปยังเกาะต่างๆ ซึ่งในขณะเดียวกันได้มีการประกาศวันประหาร โปโตกัส ดี เอส ลูฟี่จึงต้องไปช่วยเอสที่คุก อิมเพลดาวน์ โดยได้รับการช่วยเหลือจาก จักรพรรดินีโจรสลัด โบอา แฮนค็อก ให้เข้าไปข้างในได้ หลังจากนั้นเมื่อเข้าไปในได้ แต่พบว่าเอสได้ถูกนำตัวไปแล้ว ลูฟี่จึงตามไปที่ศูนย์บัญชาการหลักกองทัพเรือพร้อมกั น อีวานคอฟ(ราชินีกระเทยเพื่อนของดราก้อน) บากี้ จินเบ(7เทพโจรสลัด) ครอกโคไดล์ Mr.1 Mr.2 Mr.3 เพื่อช่วยเอสพร้อมกับกลุ่มโจรสลัดหนวดขาว หลังจากนั้นก็ช่วยเอสได้ แต่เอสก็ตายเพราะเอาตัวไปบังลูฟี่เพื่อปกป้องลูฟี่จา กการโจมตีของ อาคาอินุ(1ใน3พลเอก) หลังจากนั้น ลูฟี่เสียใจมากที่เอสตาย แต่พอได้รับการเตือนสติจากจินเบว่ายังมีพวกพ้องอยู่ ลูฟี่จึงส่งข่าวผ่านทางหนังสือพิมพ์โดยใช้รหัสลับ ว่าให้พบกันในอีก 2 ปี ที่หมู่เกาะ ชาบอนดี้ แล้วทุกคนก็เริ่มฝึกเพื่อพัฒนาฝีมือในการเข้าสู่โลกใ หม่ หลังจากผ่านไป 2 ปี กลุ่มโจรสลัดหมวกฟางได้มาพบกันอีกครั้ง แล้วมุ่งลงสู่เกาะเงือก

    Video
    ID : 1
    Format : AVC
    Format/Info : Advanced Video Codec
    Format profile : [email protected]
    Format settings : CABAC / 4 Ref Frames
    Format settings, CABAC : Yes
    Format settings, Reference frames : 4 frames
    Codec ID : V_MPEG4/ISO/AVC
    Duration : 23 min 41 s
    Bit rate : 5 659 kb/s
    Width : 1 920 pixels
    Height : 1 080 pixels
    Display aspect ratio : 16:9
    Frame rate mode : Constant
    Frame rate : 23.976 (23976/1000) FPS
    Original frame rate : 23.976 (24000/1001) FPS
    Color space : YUV
    Chroma subsampling : 4:2:0
    Bit depth : 8 bits
    Scan type : Progressive
    Bits/(Pixel*Frame) : 0.114
    Stream size : 959 MiB (92%)
    Title : encoded by darkfire68
    Language : Japanese
    Default : Yes
    Forced : No

    Audio #1
    ID : 2
    Format : AAC LC
    Format/Info : Advanced Audio Codec Low Complexity
    Codec ID : A_AAC-2
    Duration : 23 min 41 s
    Bit rate : 253 kb/s
    Channel(s) : 2 channels
    Channel layout : L R
    Sampling rate : 48.0 kHz
    Frame rate : 46.875 FPS (1024 SPF)
    Compression mode : Lossy
    Stream size : 42.9 MiB (4%)
    Title : Thai Audio
    Language : Thai
    Default : Yes
    Forced : No

    Audio #2
    ID : 3
    Format : AAC LC
    Format/Info : Advanced Audio Codec Low Complexity
    Codec ID : A_AAC-2
    Duration : 23 min 41 s
    Bit rate : 254 kb/s
    Channel(s) : 2 channels
    Channel layout : L R
    Sampling rate : 44.1 kHz
    Frame rate : 43.066 FPS (1024 SPF)
    Compression mode : Lossy
    Stream size : 43.0 MiB (4%)
    Title : Japanese Audio
    Language : Japanese
    Default : No
    Forced : No

    Text
    ID : 4
    Format : ASS
    Codec ID : S_TEXT/ASS
    Codec ID/Info : Advanced Sub Station Alpha
    Duration : 20 min 54 s
    Bit rate : 119 b/s
    Count of elements : 297
    Compression mode : Lossless
    Stream size : 18.3 KiB (0%)
    Title : English Formatted Subtitle
    Language : English
    Default : No
    Forced : No

    408 http://www.filecondo.com/dl.php?f=a2b7121KZytV
    409 http://www.filecondo.com/dl.php?f=U600891KZyuS
    410 http://www.filecondo.com/dl.php?f=3d45d01KZyvV
    411 http://www.filecondo.com/dl.php?f=Jbbf191KZywS
    412 http://www.filecondo.com/dl.php?f=y32c091KZyxP
    413 http://www.filecondo.com/dl.php?f=jbba591KZyyO
    414 http://www.filecondo.com/dl.php?f=5fcf411KZyAp
    415 http://www.filecondo.com/dl.php?f=X2ac1c1KZyAG
    416 http://www.filecondo.com/dl.php?f=297ce81KZyBE
    417 http://www.filecondo.com/dl.php?f=C85eab1KZyCE
    418 http://www.filecondo.com/dl.php?f=600b7e1KZyDE
    419 http://www.filecondo.com/dl.php?f=Sffac51KZyED
    420 http://www.filecondo.com/dl.php?f=Ob72591KZyFD
    421 http://www.filecondo.com/dl.php?f=z2284f1KZyGF

  2. #2
    Junior Member รูปส่วนตัว Rocky44446
    สมัครเมื่อ
    Apr 2020
    โพสต์
    6
    Thanks
    0
    Thanked 0 Times in 0 Posts
    ไฟล์เสีย มีแค่ 16 mb

  3. #3
    Administrators รูปส่วนตัว Duckload.us
    สมัครเมื่อ
    Dec 2010
    โพสต์
    122,358
    Thanks
    7
    Thanked 127,645 Times in 56,901 Posts
    เรียนแจ้ง แก้ไขแล้วครับ

+ ตอบกลับกระทู้

ข้อมูลกระทู้

Users Browsing this Thread

ในขณะนี้มี 1 ท่านดูกระทู้อยู่. (0 สมาชิกและ 1 ผู้เยี่ยมชม)

     

กฎการโพสต์ข้อความ

  • ท่าน ไม่สามารถ ตั้งกระทู้ใหม่ได้
  • ท่าน ไม่สามารถ ตอบกระทู้ได้
  • ท่าน ไม่สามารถ แนบไฟล์ได้
  • ท่าน ไม่สามารถ แก้ไขข้อความโพสต์ได้
  • BB code สถานะ เปิด
  • Smilies สถานะ เปิด
  • [IMG] สถานะ เปิด
  • HTML สถานะ ปิด