สองสายลับสากลระดับแนวหน้า เกรกอริโอ และ.อิง กริด คอร์เทซ เกษียณตัวเองจากงานสายลับเพื่อมาสร้างครอบครัวร่วมกั น เก้าปีผ่านไป ทั้งคู่ถูกเรียกตัวกลับไป ปฏิบัติการสายลับอีกครั้ง แต่คราวนี้พวกเขาได้ถูกศัตรูลักพาตัวไป ผู้ต้องสงสัยที่อาจมีส่วนเกี่ยวข้องกับการหายตัวอย่า งลึกลับครั้งนี้คือเฟี แกน ฟลุพ.(อลัน คัมมิ่ง).พ่อมดแห่งเทคโนโลยีผู้ครอบครองเครื่องมือพิ เศษที่ประดิษฐ์ขึ้นมา สำหรับเปลี่ยนแปลงร่าง ชะตาของอดีตสายลับทั้งสองและ.อาจหมายถึงชะตาของโลกจะ เป็นอย่างไร ? ขึ้นอยู่กับความกล้าหาญและ.ปฏิบัติการของเด็กน้อยสอง คน คาร์เมน และ.จูนี่ คอร์เทซ ผู้ซี่งผ่านการฝึกฝนวิชาสายลับจากโรงเรียนประถมและวิ ดีโอเกม พร้อมด้วยอาวุธสุดไฮเทค ใน Spy Kids หรือ พยัคฆ์จิ๋วไฮเทคผ่าโลก


Format : Matroska
Format version : Version 4
File size : 3.83 GiB
Duration : 1 h 27 min
Overall bit rate : 6 238 kb/s
Encoded date : UTC 2021-01-11 13:07:27
Writing application : mkvmerge v52.0.0 ('Secret For The Mad') 64-bit
Writing library : libebml v1.4.1 + libmatroska v1.6.2

Video
ID : 1
Format : AVC
Format/Info : Advanced Video Codec
Format profile : [email protected]
Format settings : CABAC / 3 Ref Frames
Format settings, CABAC : Yes
Format settings, Reference : 3 frames
Codec ID : V_MPEG4/ISO/AVC
Duration : 1 h 27 min
Bit rate : 4 307 kb/s
Width : 1 920 pixels
Height : 1 080 pixels
Display aspect ratio : 16:9
Frame rate mode : Constant
Frame rate : 23.976 (24000/1001) FPS
Color space : YUV
Chroma subsampling : 4:2:0
Bit depth : 8 bits
Scan type : Progressive
Bits/(Pixel*Frame) : 0.087
Stream size : 2.64 GiB (69%)
Language : English
Default : Yes
Forced : No

Audio #1
ID : 2
Format : DTS
Format/Info : Digital Theater Systems
Codec ID : A_DTS
Duration : 1 h 27 min
Bit rate mode : Constant
Bit rate : 1 509 kb/s
Channel(s) : 6 channels
Channel layout : C L R Ls Rs LFE
Sampling rate : 48.0 kHz
Frame rate : 93.750 FPS (512 SPF)
Bit depth : 24 bits
Compression mode : Lossy
Stream size : 949 MiB (24%)
Title : DTS English
Language : English
Default : Yes
Forced : No

Audio #2
ID : 3
Format : AC-3
Format/Info : Audio Coding 3
Commercial name : Dolby Digital
Codec ID : A_AC3
Duration : 1 h 27 min
Bit rate mode : Constant
Bit rate : 384 kb/s
Channel(s) : 6 channels
Channel layout : L R C LFE Ls Rs
Sampling rate : 48.0 kHz
Frame rate : 31.250 FPS (1536 SPF)
Compression mode : Lossy
Stream size : 241 MiB (6%)
Title : AC-3 Thai
Language : Thai
Service kind : Complete Main
Default : No
Forced : No

Text #1
ID : 4
Format : VobSub
Muxing mode : zlib
Codec ID : S_VOBSUB
Codec ID/Info : Picture based subtitle format used on DVDs
Duration : 1 h 21 min
Bit rate : 11.8 kb/s
Count of elements : 1061
Stream size : 6.87 MiB (0%)
Title : Sub Thai 1080p
Language : Thai
Default : No
Forced : No

Text #2
ID : 5
Format : UTF-8
Codec ID : S_TEXT/UTF8
Codec ID/Info : UTF-8 Plain Text
Duration : 1 h 21 min
Bit rate : 123 b/s
Count of elements : 1061
Stream size : 73.7 KiB (0%)
Title : Sub Thai SRT
Language : Thai
Default : No
Forced : No

Text #3
ID : 6
Format : PGS
Muxing mode : zlib
Codec ID : S_HDMV/PGS
Codec ID/Info : Picture based subtitle format used on BDs/HD-DVDs
Duration : 1 h 21 min
Bit rate : 35.3 kb/s
Count of elements : 2122
Stream size : 20.5 MiB (1%)
Title : Sub Thai PGS
Language : Thai
Default : Yes
Forced : No

Text #4
ID : 7
Format : VobSub
Muxing mode : zlib
Codec ID : S_VOBSUB
Codec ID/Info : Picture based subtitle format used on DVDs
Duration : 1 h 25 min
Bit rate : 14.3 kb/s
Count of elements : 1409
Stream size : 8.79 MiB (0%)
Title : Sub English 1080p
Language : English
Default : No
Forced : No

Text #5
ID : 8
Format : UTF-8
Codec ID : S_TEXT/UTF8
Codec ID/Info : UTF-8 Plain Text
Duration : 1 h 25 min
Bit rate : 63 b/s
Count of elements : 1409
Stream size : 39.6 KiB (0%)
Title : Sub English SRT
Language : English
Default : No
Forced : No

Text #6
ID : 9
Format : PGS
Muxing mode : zlib
Codec ID : S_HDMV/PGS
Codec ID/Info : Picture based subtitle format used on BDs/HD-DVDs
Duration : 1 h 25 min
Bit rate : 39.1 kb/s
Count of elements : 2818
Stream size : 24.0 MiB (1%)
Title : Sub English PGS
Language : English
Default : No
Forced : No



Spy Kids (2001).mkv - 3.8 GB
Spy Kids 2 The Island of Lost Dreams (2002).mkv - 4.4 GB
Spy Kids 3 Game Over (2003).mkv - 3.6 GB
Spy Kids 4 All the Time in the World in 4D (2011).mkv - 3.8 GB