+ ตอบกลับกระทู้
สรุปผลการค้นหา 1 ถึง 2 จากทั้งหมด 2
  1. #1
    Administrators รูปส่วนตัว Duckload.us
    สมัครเมื่อ
    Dec 2010
    โพสต์
    122,626
    Thanks
    7
    Thanked 127,927 Times in 57,012 Posts

    Angry [ฝรั่ง]-[ 4K Ultra HD ] • Argo (2012) : แผนฉกฟ้าแลบ ลวงสะท้านโลก • [พากย์ไทย 5.1 +เสียงอังกฤษ DTS-HD.MA.5.1] • [บรรยายไทย + อังกฤษ]• [ซับไทย PGS คมชัด] • 2160p.BluRay.HEVC.DTS-HD.MA.5.1 • @[email protected] [Modified]-[พากย์ไทย บรรยายไทย]



    Argo (2012) ระทึกลุ้น จากเรื่องจริงอันน่าเหลือเชื่อ
    ผลงานกำกับโดยผู้ชนะรางวัลลูกโลกทองคำ (ผู้กำกับภาพยนตร์ยอดเยี่ยม - Ben Affleck, ภาพยนตร์ยอดเยี่ยม-สาขาดราม่า)
    เมื่อฝูงชนชาวอิหร่านลุกฮือปฏิวัติและบุกยึดสถานทูตอ เมริกาในกรุงเตหะราน เจ้าหน้าที่อเมริกัน 6 คนที่หลบหนีออกมา
    ได้ซ่อนตัวอยู่ในสถานทูตแคนาดา โทนี่ เมนเดซ เจ้าหน้าที่ CIA มีแผนที่จะพาพวกเขากลับบ้านด้วยการปลอมตัวเป็นทีมงาน สร้างภาพยนตร์
    ในแผนแหกตาที่ท้าทายและอันตรายที่สุด ซึ่งสร้างขึ้นจากเรื่องราวที่เกิดขึ้นจริง!!!

    Code:
    Format                                   : Matroska
    Format version                           : Version 4
    File size                                : 50.8 GiB
    Duration                                 : 2 h 0 min
    Overall bit rate mode                    : Variable
    Overall bit rate                         : 60.4 Mb/s
    Movie name                               : Argo.2012.2160p.BluRay.REMUX.HEVC.DTS-HD.MA.5.1-FGT
    Encoded date                             : UTC 2021-01-09 14:04:02
    Writing application                      : mkvmerge v47.0.0 ('Black Flag') 64-bit
    Writing library                          : libebml v1.3.10 + libmatroska v1.5.2
    Cover                                    : Yes
    Attachments                              : cover.jpg / cover_land.jpg / small_cover.jpg / small_cover_land.jpg
    
    Video
    ID                                       : 1
    Format                                   : HEVC
    Format/Info                              : High Efficiency Video Coding
    Format profile                           : Main [email protected]@High
    HDR format                               : SMPTE ST 2086, HDR10 compatible
    Codec ID                                 : V_MPEGH/ISO/HEVC
    Duration                                 : 2 h 0 min
    Bit rate                                 : 48.5 Mb/s
    Width                                    : 3 840 pixels
    Height                                   : 2 160 pixels
    Display aspect ratio                     : 16:9
    Frame rate mode                          : Constant
    Frame rate                               : 23.976 (24000/1001) FPS
    Color space                              : YUV
    Chroma subsampling                       : 4:2:0 (Type 2)
    Bit depth                                : 10 bits
    Bits/(Pixel*Frame)                       : 0.244
    Stream size                              : 40.8 GiB (80%)
    Title                                    : Argo.2012.2160p.BluRay.REMUX.HEVC.DTS-HD.MA.5.1-FGT
    Default                                  : Yes
    Forced                                   : No
    Color range                              : Limited
    Color primaries                          : BT.2020
    Transfer characteristics                 : PQ
    Matrix coefficients                      : BT.2020 non-constant
    Mastering display color primaries        : Display P3
    Mastering display luminance              : min: 0.0050 cd/m2, max: 4000 cd/m2
    Maximum Content Light Level              : 3055 cd/m2
    Maximum Frame-Average Light Level        : 200 cd/m2
    
    Audio #1
    ID                                       : 2
    Format                                   : DTS XLL
    Format/Info                              : Digital Theater Systems
    Commercial name                          : DTS-HD Master Audio
    Codec ID                                 : A_DTS
    Duration                                 : 2 h 0 min
    Bit rate mode                            : Variable
    Bit rate                                 : 3 738 kb/s
    Channel(s)                               : 6 channels
    Channel layout                           : C L R Ls Rs LFE
    Sampling rate                            : 48.0 kHz
    Frame rate                               : 93.750 FPS (512 SPF)
    Bit depth                                : 24 bits
    Compression mode                         : Lossless
    Stream size                              : 3.14 GiB (6%)
    Title                                    : Argo.2012.2160p.BluRay.REMUX.HEVC.DTS-HD.MA.5.1-FGT
    Language                                 : English
    Default                                  : Yes
    Forced                                   : No
    
    Audio #2
    ID                                       : 3
    Format                                   : AC-3
    Format/Info                              : Audio Coding 3
    Commercial name                          : Dolby Digital
    Codec ID                                 : A_AC3
    Duration                                 : 2 h 0 min
    Bit rate mode                            : Constant
    Bit rate                                 : 640 kb/s
    Channel(s)                               : 6 channels
    Channel layout                           : L R C LFE Ls Rs
    Sampling rate                            : 48.0 kHz
    Frame rate                               : 31.250 FPS (1536 SPF)
    Compression mode                         : Lossy
    Stream size                              : 551 MiB (1%)
    Title                                    : Argo.2012.2160p.BluRay.REMUX.HEVC.DTS-HD.MA.5.1-FGT
    Language                                 : English
    Service kind                             : Complete Main
    Default                                  : No
    Forced                                   : No
    
    Audio #12
    ID                                       : 13
    Format                                   : AC-3
    Format/Info                              : Audio Coding 3
    Commercial name                          : Dolby Digital
    Codec ID                                 : A_AC3
    Duration                                 : 2 h 0 min
    Bit rate mode                            : Constant
    Bit rate                                 : 640 kb/s
    Channel(s)                               : 6 channels
    Channel layout                           : L R C LFE Ls Rs
    Sampling rate                            : 48.0 kHz
    Frame rate                               : 31.250 FPS (1536 SPF)
    Compression mode                         : Lossy
    Stream size                              : 551 MiB (1%)
    Title                                    : Argo.2012.2160p.BluRay.REMUX.HEVC.DTS-HD.MA.5.1-FGT
    Language                                 : Thai
    Service kind                             : Complete Main
    Default                                  : No
    Forced                                   : No
    
    Audio #13
    ID                                       : 14
    Format                                   : AC-3
    Format/Info                              : Audio Coding 3
    Commercial name                          : Dolby Digital
    Codec ID                                 : A_AC3
    Duration                                 : 2 h 0 min
    Bit rate mode                            : Constant
    Bit rate                                 : 192 kb/s
    Channel(s)                               : 2 channels
    Channel layout                           : L R
    Sampling rate                            : 48.0 kHz
    Frame rate                               : 31.250 FPS (1536 SPF)
    Compression mode                         : Lossy
    Stream size                              : 165 MiB (0%)
    Title                                    : Argo.2012.2160p.BluRay.REMUX.HEVC.DTS-HD.MA.5.1-FGT
    Language                                 : English
    Service kind                             : Complete Main
    Default                                  : No
    Forced                                   : No
    
    Audio #14
    ID                                       : 38
    Format                                   : AC-3
    Format/Info                              : Audio Coding 3
    Commercial name                          : Dolby Digital
    Codec ID                                 : A_AC3
    Duration                                 : 2 h 0 min
    Bit rate mode                            : Constant
    Bit rate                                 : 640 kb/s
    Channel(s)                               : 6 channels
    Channel layout                           : L R C LFE Ls Rs
    Sampling rate                            : 48.0 kHz
    Frame rate                               : 31.250 FPS (1536 SPF)
    Compression mode                         : Lossy
    Stream size                              : 551 MiB (1%)
    Title                                    : Thai BluRay Master
    Language                                 : Thai
    Service kind                             : Complete Main
    Default                                  : No
    Forced                                   : Yes
    
    Text #1
    ID                                       : 15
    Format                                   : PGS
    Muxing mode                              : zlib
    Codec ID                                 : S_HDMV/PGS
    Codec ID/Info                            : Picture based subtitle format used on BDs/HD-DVDs
    Duration                                 : 1 h 59 min
    Bit rate                                 : 38.4 kb/s
    Count of elements                        : 2779
    Stream size                              : 32.9 MiB (0%)
    Language                                 : English
    Default                                  : Yes
    Forced                                   : No
    
    Text #2
    ID                                       : 16
    Format                                   : PGS
    Muxing mode                              : zlib
    Codec ID                                 : S_HDMV/PGS
    Codec ID/Info                            : Picture based subtitle format used on BDs/HD-DVDs
    Duration                                 : 1 h 53 min
    Bit rate                                 : 25.2 kb/s
    Count of elements                        : 2660
    Stream size                              : 20.5 MiB (0%)
    Title                                    : Japanese-PGS
    Language                                 : Japanese
    Default                                  : No
    Forced                                   : No
    
    Text #3
    ID                                       : 17
    Format                                   : PGS
    Muxing mode                              : zlib
    Codec ID                                 : S_HDMV/PGS
    Codec ID/Info                            : Picture based subtitle format used on BDs/HD-DVDs
    Duration                                 : 1 h 59 min
    Bit rate                                 : 27.9 kb/s
    Count of elements                        : 2524
    Stream size                              : 23.9 MiB (0%)
    Title                                    : French-PGS
    Language                                 : French
    Default                                  : No
    Forced                                   : No
    
    Text #4
    ID                                       : 18
    Format                                   : PGS
    Muxing mode                              : zlib
    Codec ID                                 : S_HDMV/PGS
    Codec ID/Info                            : Picture based subtitle format used on BDs/HD-DVDs
    Duration                                 : 1 h 59 min
    Bit rate                                 : 43.0 kb/s
    Count of elements                        : 2833
    Stream size                              : 36.8 MiB (0%)
    Title                                    : German-PGS
    Language                                 : German
    Default                                  : No
    Forced                                   : No
    
    Text #5
    ID                                       : 19
    Format                                   : PGS
    Muxing mode                              : zlib
    Codec ID                                 : S_HDMV/PGS
    Codec ID/Info                            : Picture based subtitle format used on BDs/HD-DVDs
    Duration                                 : 1 h 59 min
    Bit rate                                 : 38.7 kb/s
    Count of elements                        : 2871
    Stream size                              : 33.1 MiB (0%)
    Title                                    : Italian-PGS
    Language                                 : Italian
    Default                                  : No
    Forced                                   : No
    
    Text #6
    ID                                       : 20
    Format                                   : PGS
    Muxing mode                              : zlib
    Codec ID                                 : S_HDMV/PGS
    Codec ID/Info                            : Picture based subtitle format used on BDs/HD-DVDs
    Duration                                 : 1 h 59 min
    Bit rate                                 : 29.2 kb/s
    Count of elements                        : 2504
    Stream size                              : 25.0 MiB (0%)
    Title                                    : Spanish-PGS
    Language                                 : Spanish
    Default                                  : No
    Forced                                   : No
    
    Text #7
    ID                                       : 21
    Format                                   : PGS
    Muxing mode                              : zlib
    Codec ID                                 : S_HDMV/PGS
    Codec ID/Info                            : Picture based subtitle format used on BDs/HD-DVDs
    Duration                                 : 1 h 59 min
    Bit rate                                 : 27.7 kb/s
    Count of elements                        : 2025
    Stream size                              : 23.7 MiB (0%)
    Title                                    : Dutch-PGS
    Language                                 : Dutch
    Default                                  : No
    Forced                                   : No
    
    Text #22
    ID                                       : 36
    Format                                   : PGS
    Muxing mode                              : zlib
    Codec ID                                 : S_HDMV/PGS
    Codec ID/Info                            : Picture based subtitle format used on BDs/HD-DVDs
    Duration                                 : 1 h 57 min
    Bit rate                                 : 1 775 b/s
    Count of elements                        : 131
    Stream size                              : 1.50 MiB (0%)
    Title                                    : English-FORCED-PGS
    Language                                 : English
    Default                                  : No
    Forced                                   : No
    
    Text #23
    ID                                       : 37
    Format                                   : PGS
    Muxing mode                              : zlib
    Codec ID                                 : S_HDMV/PGS
    Codec ID/Info                            : Picture based subtitle format used on BDs/HD-DVDs
    Duration                                 : 1 h 57 min
    Bit rate                                 : 3 020 b/s
    Count of elements                        : 257
    Stream size                              : 2.55 MiB (0%)
    Title                                    : Thai-FORCED-PGS
    Language                                 : Thai
    Default                                  : No
    Forced                                   : No
    
    Text #24
    ID                                       : 39
    Format                                   : PGS
    Muxing mode                              : zlib
    Codec ID                                 : S_HDMV/PGS
    Codec ID/Info                            : Picture based subtitle format used on BDs/HD-DVDs
    Duration                                 : 1 h 58 min
    Bit rate                                 : 42.0 kb/s
    Count of elements                        : 2576
    Stream size                              : 35.6 MiB (0%)
    Title                                    : Thai   PGS
    Language                                 : Thai
    Default                                  : No
    Forced                                   : No
    
    Text #25
    ID                                       : 40
    Format                                   : VobSub
    Muxing mode                              : zlib
    Codec ID                                 : S_VOBSUB
    Codec ID/Info                            : Picture based subtitle format used on DVDs
    Duration                                 : 1 h 58 min
    Bit rate                                 : 9 442 b/s
    Count of elements                        : 1288
    Stream size                              : 8.02 MiB (0%)
    Title                                    : Thai 1080p
    Language                                 : Thai
    Default                                  : No
    Forced                                   : No
    
    Text #26
    ID                                       : 41
    Format                                   : PGS
    Muxing mode                              : zlib
    Codec ID                                 : S_HDMV/PGS
    Codec ID/Info                            : Picture based subtitle format used on BDs/HD-DVDs
    Duration                                 : 1 h 58 min
    Bit rate                                 : 42.0 kb/s
    Count of elements                        : 2576
    Stream size                              : 35.6 MiB (0%)
    Title                                    : Thai   PGS- Yellow
    Language                                 : Thai
    Default                                  : No
    Forced                                   : No
    
    Text #27
    ID                                       : 42
    Format                                   : VobSub
    Muxing mode                              : zlib
    Codec ID                                 : S_VOBSUB
    Codec ID/Info                            : Picture based subtitle format used on DVDs
    Duration                                 : 1 h 58 min
    Bit rate                                 : 9 439 b/s
    Count of elements                        : 1288
    Stream size                              : 8.02 MiB (0%)
    Title                                    : Thai 1080p- Yellow
    Language                                 : Thai
    Default                                  : No
    Forced                                   : No
    
    Menu
    00:00:00.000                             : en:Chapter 1
    00:12:39.759                             : en:Chapter 2
    00:19:36.091                             : en:Chapter 3
    00:28:59.529                             : en:Chapter 4
    00:42:48.566                             : en:Chapter 5
    00:50:01.498                             : en:Chapter 6
    01:00:00.013                             : en:Chapter 7
    01:09:09.478                             : en:Chapter 8
    01:19:46.782                             : en:Chapter 9
    01:30:14.075                             : en:Chapter 10
    01:39:00.809                             : en:Chapter 11
    01:51:35.647                             : en:Chapter 12




    http://cornfile.com/ukpd1scynylb

  2. #2
    Senior Member
    สมัครเมื่อ
    Jul 2013
    โพสต์
    1,651
    Thanks
    0
    Thanked 0 Times in 0 Posts
    ลุ้นแบบว่า ห้ามกระพริบตาเลย

+ ตอบกลับกระทู้

ข้อมูลกระทู้

Users Browsing this Thread

ในขณะนี้มี 1 ท่านดูกระทู้อยู่. (0 สมาชิกและ 1 ผู้เยี่ยมชม)

     

กฎการโพสต์ข้อความ

  • ท่าน ไม่สามารถ ตั้งกระทู้ใหม่ได้
  • ท่าน ไม่สามารถ ตอบกระทู้ได้
  • ท่าน ไม่สามารถ แนบไฟล์ได้
  • ท่าน ไม่สามารถ แก้ไขข้อความโพสต์ได้
  • BB code สถานะ เปิด
  • Smilies สถานะ เปิด
  • [IMG] สถานะ เปิด
  • HTML สถานะ ปิด