+ ตอบกลับกระทู้
สรุปผลการค้นหา 1 ถึง 1 จากทั้งหมด 1
  1. #1
    Administrators รูปส่วนตัว Duckload.us
    สมัครเมื่อ
    Dec 2010
    โพสต์
    122,358
    Thanks
    7
    Thanked 127,645 Times in 56,901 Posts

    Lightbulb [เกาหลี]-[Live สุขเคล้าเศร้า ชีวิตในเครื่องแบบ Jung Yoo Mi, Lee Kwang Soo, Bae Sung Woo, Bae Jong Ok Ep.1-18/End]-WEB-DL.H.264.1080p. [From HD-TV]-[Soundtrack บรรยายไทย]




    ซีรี่ย์เกาหลี: Live
    ชื่อภาษาไทย: สุขเคล้าเศร้า ชีวิตในเครื่องแบบ
    ประเภท: Detective
    นักแสดง: Jung Yoo Mi, Lee Kwang Soo, Bae Sung Woo, Bae Jong Ok
    จำนวนตอน: 18
    เขียนบทโดย: No Hee Kyung
    ผู้กำกับ: Kim Kyu Tae
    ออกอากาศทางสถานีโทรทัศน์: tvN
    เริ่มออกอากาศ: 10 มีนาคม 2018 – 29 เมษายน 2018
    เวลาออกอากาศ: ทุกวันเสาร์และวันอาทิตย์ 19:00 น. เวลาไทย / 21:00 น. ตามเวลาเกาหลี
    นักแสดง:
    Jung Yoo Mi as Han Jung Oh (28, officer)
    Lee Kwang Soo as Yum Sang Soo (29, officer)
    Oh Han Kyul as young Yum Sang Soo
    Bae Sung Woo as Oh Yang Chon (48, inspector demotion to lieutenant)
    Bae Jong Ok as Ahn Jang Mi (50, inspector)
    People around Han Jung Oh
    Woo Hyun Joo as Jung Oh's mother (late 40s)
    People around Yum Sang Soo
    Yum Hye Ran as Sang Soo's mother (early 50s)
    People around Oh Yang Chon
    Lee Soon Jae as Yang Chon's father (early 80s)
    People around Ahn Jang Mi
    Go Min Shi as Oh Song Yi (24, Yang Chon & Jang Mi's daughter)
    ?? as Oh Dae Gwan (Yang Chon & Jang Mi's son)
    Hong Il Patrol Division
    Sung Dong Il as Ki Han Sol (54, chief superintendent)
    Jang Hyun Sung as Eun Kyung Mo (48, Team 1 Leader, inspector)
    Lee Ul as Lee Sam Bo (60, Team 2, lieutenant)
    Lee Joo Young as Song Hye Ri, (29, Team 2, officer)
    Lee Shi Un as Kang Nam Il (35, Team 3, sergeant)
    Shin Dong Wook as Choi Myung Ho (34, Team 4, corporal)
    Kim Gun Woo as Kim Han Pyo (29, Team 4, officer)
    Jo Wan Ki as Kim Min Suk (35, Team 5, sergeant)
    Baek Seung Do as Go Seung Jae (28, Team 5, officer)
    Lee Soon Won as Ban Jong Min (34, Team 6, sergeant)
    Kim Jong Hoon as Min Won Woo (31, Team 6, officer)
    Sysopsis: เจ้าหน้าที่สายตรวจที่งานยุ่งที่สุดของเกาหลีใต้ทุ่ม เททำงานทั้งวันทั้งคืนเพื่อรักษากฎหมายและความสงบสุข แต่ชีวิตจริงของพวกเขาอาจเต็มไปด้วยความวุ่นวายเกินก ว่าที่ใครจะคาดคิด... มาติดตามชมกันได้ในซีรีส์เกาหลี Live สุขเคล้าเศร้า ชีวิตในเครื่องแบบ
    Credit: franky

    General
    Unique ID : 34546129872099113330342480619821780705 (0x19FD57B4864B646522FB3215F576CEE1)
    Complete name : L:Live สุขเคล้าเศร้า ชีวิตในเครื่องแบบLive.2018.S01E09.1080p.NF.WEB-DL.DDP2.0.x264.mkv
    Format : Matroska
    Format version : Version 4
    File size : 3.25 GiB
    Duration : 1 h 6 min
    Overall bit rate mode : Variable
    Overall bit rate : 6 950 kb/s
    Encoded date : UTC 2021-01-10 14:08:38
    Writing application : mkvmerge v19.0.0 ('Brave Captain') 64-bit
    Writing library : libebml v1.3.5 + libmatroska v1.4.8

    Video
    ID : 1
    Format : AVC
    Format/Info : Advanced Video Codec
    Format profile : [email protected]
    Format settings : CABAC / 3 Ref Frames
    Format settings, CABAC : Yes
    Format settings, Reference fra : 3 frames
    Codec ID : V_MPEG4/ISO/AVC
    Duration : 1 h 6 min
    Bit rate mode : Variable
    Bit rate : 6 810 kb/s
    Maximum bit rate : 10.2 Mb/s
    Width : 1 920 pixels
    Height : 1 080 pixels
    Display aspect ratio : 16:9
    Frame rate mode : Constant
    Frame rate : 23.976 (24000/1001) FPS
    Color space : YUV
    Chroma subsampling : 4:2:0
    Bit depth : 8 bits
    Scan type : Progressive
    Bits/(Pixel*Frame) : 0.137
    Stream size : 3.18 GiB (98%)
    Writing library : x264 core 148 r2715 7e75228
    Encoding settings : cabac=1 / ref=3 / deblock=1:0:0 / analyse=0x1:0x111 / me=umh / subme=10 / psy=1 / psy_rd=1.00:0.00 / mixed_ref=1 / me_range=24 / chroma_me=1 / trellis=2 / 8x8dct=0 / cqm=0 / deadzone=21,11 / fast_pskip=1 / chroma_qp_offset=-2 / threads=8 / lookahead_threads=1 / sliced_threads=0 / nr=0 / decimate=1 / interlaced=0 / bluray_compat=0 / stitchable=1 / constrained_intra=0 / bframes=2 / b_pyramid=0 / b_adapt=2 / b_bias=0 / direct=3 / weightb=1 / open_gop=0 / weightp=2 / keyint=48 / keyint_min=25 / scenecut=0 / intra_refresh=0 / rc_lookahead=48 / rc=2pass / mbtree=1 / bitrate=6810 / ratetol=1.0 / qcomp=0.50 / qpmin=6 / qpmax=51 / qpstep=4 / cplxblur=20.0 / qblur=0.5 / vbv_maxrate=10215 / vbv_bufsize=13620 / nal_hrd=vbr / filler=0 / ip_ratio=1.40 / aq=1:1.00
    Default : Yes
    Forced : No

    Audio
    ID : 2
    Format : E-AC-3
    Format/Info : Enhanced AC-3
    Commercial name : Dolby Digital Plus
    Codec ID : A_EAC3
    Duration : 1 h 6 min
    Bit rate mode : Constant
    Bit rate : 128 kb/s
    Channel(s) : 2 channels
    Channel layout : L R
    Sampling rate : 48.0 kHz
    Frame rate : 31.250 FPS (1536 SPF)
    Compression mode : Lossy
    Stream size : 61.3 MiB (2%)
    Language : Korean
    Service kind : Complete Main
    Default : Yes
    Forced : No

    Text #1
    ID : 3
    Format : UTF-8
    Codec ID : S_TEXT/UTF8
    Codec ID/Info : UTF-8 Plain Text
    Duration : 1 h 6 min
    Bit rate : 141 b/s
    Count of elements : 910
    Stream size : 68.8 KiB (0%)
    Language : Thai
    Default : Yes
    Forced : No

    Text #2
    ID : 4
    Format : PGS
    Muxing mode : zlib
    Codec ID : S_HDMV/PGS
    Codec ID/Info : Picture based subtitle format used on BDs/HD-DVDs
    Duration : 1 h 6 min
    Bit rate : 43.0 kb/s
    Count of elements : 1820
    Stream size : 20.5 MiB (1%)
    Language : Thai
    Default : No
    Forced : No



    01 http://www.filecondo.com/dl.php?f=N04d5c1KZxG2
    02 http://www.filecondo.com/dl.php?f=g51e081KZxGZ
    03 http://www.filecondo.com/dl.php?f=75cccb1KZxHS
    04 http://www.filecondo.com/dl.php?f=s597db1KZxJV
    05 http://www.filecondo.com/dl.php?f=t1512a1KZxN7
    06 http://www.filecondo.com/dl.php?f=H455e51KZxR0
    07 http://www.filecondo.com/dl.php?f=32cee81KZxRN
    08 http://www.filecondo.com/dl.php?f=sb6d601KZxSC
    09 http://www.filecondo.com/dl.php?f=N531d41KZxTK
    10 http://www.filecondo.com/dl.php?f=o753cf1KZxVl
    11 http://www.filecondo.com/dl.php?f=C555121KZxXh
    12 http://www.filecondo.com/dl.php?f=P94e001KZxZ0
    13 http://www.filecondo.com/dl.php?f=Cf695d1KZy1b
    14 http://www.filecondo.com/dl.php?f=1bb19e1KZy2g
    15 http://www.filecondo.com/dl.php?f=Id3ec61KZy4B
    16 http://www.filecondo.com/dl.php?f=tb61671KZy4X
    17 http://www.filecondo.com/dl.php?f=C0b7251KZy5U
    18 http://www.filecondo.com/dl.php?f=1114771KZy6T

  2. The Following User Says Thank You to Duckload.us For This Useful Post:

    thatsna4555555 (01-14-2021)

+ ตอบกลับกระทู้

ข้อมูลกระทู้

Users Browsing this Thread

ในขณะนี้มี 1 ท่านดูกระทู้อยู่. (0 สมาชิกและ 1 ผู้เยี่ยมชม)

     

กฎการโพสต์ข้อความ

  • ท่าน ไม่สามารถ ตั้งกระทู้ใหม่ได้
  • ท่าน ไม่สามารถ ตอบกระทู้ได้
  • ท่าน ไม่สามารถ แนบไฟล์ได้
  • ท่าน ไม่สามารถ แก้ไขข้อความโพสต์ได้
  • BB code สถานะ เปิด
  • Smilies สถานะ เปิด
  • [IMG] สถานะ เปิด
  • HTML สถานะ ปิด