+ ตอบกลับกระทู้
สรุปผลการค้นหา 1 ถึง 2 จากทั้งหมด 2
  1. #1
    Administrators รูปส่วนตัว Duckload.us
    สมัครเมื่อ
    Dec 2010
    โพสต์
    122,399
    Thanks
    7
    Thanked 127,668 Times in 56,910 Posts

    Thumbs up [ญี่ปุ่น]-Show Me The Way To The Station (2020) ที่ตรงนั้นฉันจะรอเธอ-Encode.AC-3.1080p. [Modified]-[พากย์ไทย บรรยายไทย]




    ซายากะ (จิเสะ นิสสึ) เป็นสาวน้อยวัย 8 ขวบที่เข้ากับใครไม่ค่อยได้ เธอเจอกับ ลู สุนัขพันธุ์ชิบะที่ถูกทิ้ง ซายากะผูกพันกับลูในทันที และรับเจ้าลูมาเลี้ยง ลูทำให้เธอยิ้มได้ คอยอยู่ข้าง ๆ เวลาที่เธอเหงา คอยให้เธอกอดเวลาที่เธอร้องไห้ และมักไปนั่งรอซายากะกลับจากโรงเรียนเสมอที่สถานีรถไ ฟ ที่ซึ่งกลายเป็นสถานที่โปรดปรานของเจ้าลูและซายากะ วันหนึ่ง เจ้าลูหายไป ซายากะ พยายามวนเวียนอยู่ในที่ ๆ เคยไปเที่ยวกับ ลู ด้วยความหวังว่าเจ้าหมาน้อยตัวนั้นจะกลับมาและทำให้เ ธอมีชีวิตชีวาอีกครั้ง ซายากะ ยังได้เจอกับ โคทาโร่ ฟุเสะ (โยชิ โออิดะ) คุณปู่เจ้าของร้านกาแฟที่สูญเสียลูกชายไปนานแล้ว และยังรอคอยให้ลูกชายกลับมาหา ทั้งคู่มีอะไรหลาย ๆ อย่างคล้ายคลึงกัน โดยเฉพาะอย่างยิ่งการหวนนึกถึงคนและสุนัขที่จากไปอยู ่เสมอ เกิดเป็นความสัมพันธ์ต่างวัยที่อาจทำให้หลายคนต้องหล ั่งน้ำตา


    Format : Matroska
    Format version : Version 4
    File size : 4.91 GiB
    Duration : 2 h 6 min
    Overall bit rate : 5 564 kb/s
    Encoded date : UTC 2021-01-13 14:19:55
    Writing application : mkvmerge v52.0.0 ('Secret For The Mad') 64-bit
    Writing library : libebml v1.4.1 + libmatroska v1.6.2

    Video
    ID : 1
    Format : AVC
    Format/Info : Advanced Video Codec
    Format profile : [email protected]
    Format settings : CABAC / 3 Ref Frames
    Format settings, CABAC : Yes
    Format settings, Reference : 3 frames
    Codec ID : V_MPEG4/ISO/AVC
    Duration : 2 h 6 min
    Bit rate : 4 627 kb/s
    Width : 1 920 pixels
    Height : 776 pixels
    Display aspect ratio : 2.474
    Frame rate mode : Constant
    Frame rate : 25.000 FPS
    Color space : YUV
    Chroma subsampling : 4:2:0
    Bit depth : 8 bits
    Scan type : Progressive
    Bits/(Pixel*Frame) : 0.124
    Stream size : 4.08 GiB (83%)
    Language : Japanese
    Default : Yes
    Forced : No

    Audio #1
    ID : 2
    Format : AC-3
    Format/Info : Audio Coding 3
    Commercial name : Dolby Digital
    Codec ID : A_AC3
    Duration : 2 h 6 min
    Bit rate mode : Constant
    Bit rate : 448 kb/s
    Channel(s) : 6 channels
    Channel layout : L R C LFE Ls Rs
    Sampling rate : 48.0 kHz
    Frame rate : 31.250 FPS (1536 SPF)
    Compression mode : Lossy
    Stream size : 405 MiB (8%)
    Title : AC-3 Japanese DVD MASTER
    Language : Japanese
    Service kind : Complete Main
    Default : Yes
    Forced : No

    Audio #2
    ID : 3
    Format : AC-3
    Format/Info : Audio Coding 3
    Commercial name : Dolby Digital
    Codec ID : A_AC3
    Duration : 2 h 6 min
    Bit rate mode : Constant
    Bit rate : 448 kb/s
    Channel(s) : 6 channels
    Channel layout : L R C LFE Ls Rs
    Sampling rate : 48.0 kHz
    Frame rate : 31.250 FPS (1536 SPF)
    Compression mode : Lossy
    Stream size : 405 MiB (8%)
    Title : AC-3 Thai DVD MASTER
    Language : Thai
    Service kind : Complete Main
    Default : No
    Forced : No

    Text #1
    ID : 4
    Format : VobSub
    Muxing mode : zlib
    Codec ID : S_VOBSUB
    Codec ID/Info : Picture based subtitle format used on DVDs
    Duration : 2 h 4 min
    Bit rate : 2 607 b/s
    Count of elements : 823
    Stream size : 2.32 MiB (0%)
    Title : Sub Thai DVD MASTER
    Language : Thai
    Default : No
    Forced : No

    Text #2
    ID : 5
    Format : PGS
    Muxing mode : zlib
    Codec ID : S_HDMV/PGS
    Codec ID/Info : Picture based subtitle format used on BDs/HD-DVDs
    Duration : 2 h 4 min
    Bit rate : 38.9 kb/s
    Count of elements : 1646
    Stream size : 34.6 MiB (1%)
    Title : Sub Thai PGS
    Language : Thai
    Default : Yes
    Forced : No

    Text #3
    ID : 6
    Format : VobSub
    Muxing mode : zlib
    Codec ID : S_VOBSUB
    Codec ID/Info : Picture based subtitle format used on DVDs
    Duration : 2 h 4 min
    Bit rate : 2 104 b/s
    Count of elements : 814
    Stream size : 1.87 MiB (0%)
    Title : Sub Englsih DVD MASTER
    Language : English
    Default : No
    Forced : No

    Text #4
    ID : 7
    Format : PGS
    Muxing mode : zlib
    Codec ID : S_HDMV/PGS
    Codec ID/Info : Picture based subtitle format used on BDs/HD-DVDs
    Duration : 2 h 4 min
    Bit rate : 24.9 kb/s
    Count of elements : 1628
    Stream size : 22.1 MiB (0%)
    Title : Sub Englsih PGS
    Language : English
    Default : No
    Forced : No

    Menu
    00:00:00.000 : en:Chapter 01
    00:00:12.520 : en:Chapter 02
    00:08:55.680 : en:Chapter 03
    00:22:07.560 : en:Chapter 04
    00:33:50.520 : en:Chapter 05
    00:43:41.880 : en:Chapter 06
    00:54:43.240 : en:Chapter 07
    01:01:35.960 : en:Chapter 08
    01:10:49.400 : en:Chapter 09
    01:17:56.960 : en:Chapter 10
    01:28:24.920 : en:Chapter 11
    01:39:42.040 : en:Chapter 12
    01:48:58.120 : en:Chapter 13





    Download:cornfile
    http://cornfile.com/se7azyiw6jeo
    Download:filecondo
    http://www.filecondo.com/dl.php?f=87c39a1KZY3s

  2. #2
    Senior Member
    สมัครเมื่อ
    Jul 2013
    โพสต์
    1,623
    Thanks
    0
    Thanked 0 Times in 0 Posts
    ขอบคุณครับ

+ ตอบกลับกระทู้

ข้อมูลกระทู้

Users Browsing this Thread

ในขณะนี้มี 1 ท่านดูกระทู้อยู่. (0 สมาชิกและ 1 ผู้เยี่ยมชม)

     

กฎการโพสต์ข้อความ

  • ท่าน ไม่สามารถ ตั้งกระทู้ใหม่ได้
  • ท่าน ไม่สามารถ ตอบกระทู้ได้
  • ท่าน ไม่สามารถ แนบไฟล์ได้
  • ท่าน ไม่สามารถ แก้ไขข้อความโพสต์ได้
  • BB code สถานะ เปิด
  • Smilies สถานะ เปิด
  • [IMG] สถานะ เปิด
  • HTML สถานะ ปิด