+ ตอบกลับกระทู้
สรุปผลการค้นหา 1 ถึง 2 จากทั้งหมด 2
  1. #1
    Administrators รูปส่วนตัว Duckload.us
    สมัครเมื่อ
    Dec 2010
    โพสต์
    123,797
    Thanks
    7
    Thanked 128,830 Times in 57,305 Posts

    Lightbulb [ฝรั่ง]-[HBO] Lovecraft Country Season 1 [เสียง:อังกฤษ-ไทย AC-3 ][บรรยาย: ไทย HBO PGS-อังกฤษ]-WEB-DL.H.264.1080p. [From HD-TV]-[พากย์ไทย บรรยายไทย]







    เลิฟคราฟต์คันทรี่ ซีซั่น 1
    ด้วยกันกับเพื่อนและลุงของเขา Atticus เริ่มต้นการเดินทางไปบนถนนข้ามยุค 50 ของ Jim Crow America เพื่อตามหาพ่อที่หายไป สิ่งที่ตามมาคือการต่อสู้เพื่อเอาชีวิตรอดและเอาชนะท ั้งผู้เหยียดสีผิวของชนผิวขาวในอเมริกาและอสุรกายที่ น่าสะพรึงกลัว


    Video
    ID : 1
    Format : AVC
    Format/Info : Advanced Video Codec
    Format profile : [email protected]
    Format settings : CABAC / 4 Ref Frames
    Format settings, CABAC : Yes
    Format settings, Reference fra : 4 frames
    Codec ID : V_MPEG4/ISO/AVC
    Duration : 1 h 9 min
    Bit rate mode : Constant
    Bit rate : 8 413 kb/s
    Nominal bit rate : 10 000 kb/s
    Width : 1 920 pixels
    Height : 1 080 pixels
    Display aspect ratio : 16:9
    Frame rate mode : Constant
    Frame rate : 23.976 (24000/1001) FPS
    Color space : YUV
    Chroma subsampling : 4:2:0
    Bit depth : 8 bits
    Scan type : Progressive
    Bits/(Pixel*Frame) : 0.169
    Stream size : 4.09 GiB (88%)
    Default : Yes
    Forced : No
    Color range : Limited
    Color primaries : BT.709
    Transfer characteristics : BT.709
    Matrix coefficients : BT.709

    Audio #1
    ID : 2
    Format : AC-3
    Format/Info : Audio Coding 3
    Commercial name : Dolby Digital
    Codec ID : A_AC3
    Duration : 1 h 9 min
    Bit rate mode : Constant
    Bit rate : 448 kb/s
    Channel(s) : 2 channels
    Channel layout : L R
    Sampling rate : 48.0 kHz
    Frame rate : 31.250 FPS (1536 SPF)
    Compression mode : Lossy
    Stream size : 223 MiB (5%)
    Title : [Thai-AC-3]
    Language : Thai
    Service kind : Complete Main
    Default : Yes
    Forced : No

    Audio #2
    ID : 3
    Format : E-AC-3
    Format/Info : Enhanced AC-3
    Commercial name : Dolby Digital Plus
    Codec ID : A_EAC3
    Duration : 1 h 9 min
    Bit rate mode : Constant
    Bit rate : 640 kb/s
    Channel(s) : 6 channels
    Channel layout : L R C LFE Ls Rs
    Sampling rate : 48.0 kHz
    Frame rate : 31.250 FPS (1536 SPF)
    Compression mode : Lossy
    Delay relative to video : 12 ms
    Stream size : 319 MiB (7%)
    Title : [English-AC-3]
    Language : English
    Service kind : Complete Main
    Default : No
    Forced : No

    Text #1
    ID : 4
    Format : PGS
    Muxing mode : zlib
    Codec ID : S_HDMV/PGS
    Codec ID/Info : Picture based subtitle format used on BDs/HD-DVDs
    Duration : 1 h 5 min
    Bit rate : 43.8 kb/s
    Count of elements : 1726
    Stream size : 20.6 MiB (0%)
    Title : [Thai HBO PGS]
    Language : Thai
    Default : Yes
    Forced : No

    Text #2
    ID : 5
    Format : UTF-8
    Codec ID : S_TEXT/UTF8
    Codec ID/Info : UTF-8 Plain Text
    Duration : 1 h 9 min
    Bit rate : 73 b/s
    Count of elements : 1348
    Stream size : 37.2 KiB (0%)
    Title : SDH
    Language : English
    Default : No
    Forced : No






    01 http://www.filecondo.com/dl.php?f=aa295f1KZhPL
    02 http://www.filecondo.com/dl.php?f=52debd1KZhRT
    03 http://www.filecondo.com/dl.php?f=Q36a3c1KZhSA
    04 http://www.filecondo.com/dl.php?f=jc829e1KZhTr
    05 http://www.filecondo.com/dl.php?f=D295b51KZhUo
    06 http://www.filecondo.com/dl.php?f=qa1e2d1KZhVo
    07 http://www.filecondo.com/dl.php?f=heec1b1KZhWm
    08 http://www.filecondo.com/dl.php?f=5477591KZhXt
    09 http://www.filecondo.com/dl.php?f=u000a31KZhYz
    10 http://www.filecondo.com/dl.php?f=Q1a7421KZhZu

  2. The Following User Says Thank You to Duckload.us For This Useful Post:

    thatsna4555555 (01-18-2021)

  3. #2
    Senior Member
    สมัครเมื่อ
    Jul 2013
    โพสต์
    1,787
    Thanks
    0
    Thanked 0 Times in 0 Posts
    ขอบคุณครับ

+ ตอบกลับกระทู้

ข้อมูลกระทู้

Users Browsing this Thread

ในขณะนี้มี 1 ท่านดูกระทู้อยู่. (0 สมาชิกและ 1 ผู้เยี่ยมชม)

     

กฎการโพสต์ข้อความ

  • ท่าน ไม่สามารถ ตั้งกระทู้ใหม่ได้
  • ท่าน ไม่สามารถ ตอบกระทู้ได้
  • ท่าน ไม่สามารถ แนบไฟล์ได้
  • ท่าน ไม่สามารถ แก้ไขข้อความโพสต์ได้
  • BB code สถานะ เปิด
  • Smilies สถานะ เปิด
  • [IMG] สถานะ เปิด
  • HTML สถานะ ปิด