+ ตอบกลับกระทู้
สรุปผลการค้นหา 1 ถึง 8 จากทั้งหมด 8
  1. #1
    Administrators รูปส่วนตัว Duckload.us
    สมัครเมื่อ
    Dec 2010
    โพสต์
    123,926
    Thanks
    7
    Thanked 128,943 Times in 57,328 Posts

    Thumbs up [ฝรั่ง]-WandaVision (2021) Season 1 Episode 1-8 [1080p Disney+] [เสียงอังกฤษ Atmos] [บรรยายไทย + อังกฤษ] [ซับไทยแปลจากคุณ nareupon] [ซับ PGS, IDX, SRT]




    Wandavision จะนำสไตล์ของซิทคอมคลาสสิคมาผสมกับจักรวาลหนังของ Marvel แน่นอนจะเล่าเรื่องราวต่อจาก Endgame เเต่ว่าจะเล่าเรื่องราวเกี่ยวกับ Wanda Maximoff รับบทโดย Elizabeth Olsen และ Vision รับบทโดย Paul Bettany เป็นผู้ทรงพลังสองคนที่มีชีวิตสุดแสนเพอเฟ็คอยู่ในบ้ านชานเมือง แต่พวกเขาเริ่มสงสัยว่าทุกอย่างมันไม่ได้อย่างที่เห็ น

    Marvel studios WandaVision กำกับโดย Matt Shakman และซีรีย์นี้ยังเป็นซีรีย์ที่จะต่อเรื่องราวไปยัง Doctor Strange in the Multiverse of Madness

    Format : MPEG-4
    Format profile : QuickTime
    Codec ID : qt 0000.00 (qt )
    File size : 5.09 GiB
    Duration : 30 min 9 s
    Overall bit rate : 24.2 Mb/s
    Encoded date : UTC 2021-02-21 08:43:12
    Tagged date : UTC 2021-02-21 08:43:49
    Writing library : Apple QuickTime
    com.apple.quicktime.author : ReplayKitRecording

    Video
    ID : 1
    Format : AVC
    Format/Info : Advanced Video Codec
    Format profile : [email protected]
    Format settings : CABAC / 1 Ref Frames
    Format settings, CABAC : Yes
    Format settings, Reference frames : 1 frame
    Format settings, GOP : M=1, N=30
    Codec ID : avc1
    Codec ID/Info : Advanced Video Coding
    Duration : 30 min 9 s
    Source duration : 30 min 10 s
    Bit rate : 24.0 Mb/s
    Width : 1 920 pixels
    Height : 1 342 pixels
    Display aspect ratio : 1.431
    Frame rate mode : Variable
    Frame rate : 36.648 FPS
    Minimum frame rate : 12.000 FPS
    Maximum frame rate : 66.667 FPS
    Color space : YUV
    Chroma subsampling : 4:2:0
    Bit depth : 8 bits
    Scan type : Progressive
    Bits/(Pixel*Frame) : 0.254
    Stream size : 5.06 GiB (99%)
    Source stream size : 5.06 GiB (99%)
    Title : Core Media Video
    Encoded date : UTC 2021-02-21 08:43:12
    Tagged date : UTC 2021-02-21 08:43:49
    Color range : Full
    Color primaries : BT.709
    Transfer characteristics : sRGB/sYCC
    Matrix coefficients : BT.709
    Codec configuration box : avcC

    Audio
    ID : 2
    Format : AAC LC
    Format/Info : Advanced Audio Codec Low Complexity
    Codec ID : mp4a-40-2
    Duration : 30 min 9 s
    Source duration : 30 min 9 s
    Bit rate mode : Constant
    Bit rate : 128 kb/s
    Channel(s) : 2 channels
    Channel layout : L R
    Sampling rate : 44.1 kHz
    Frame rate : 43.066 FPS (1024 SPF)
    Compression mode : Lossy
    Stream size : 27.4 MiB (1%)
    Source stream size : 27.4 MiB (1%)
    Title : Core Media Audio
    Encoded date : UTC 2021-02-21 08:43:12
    Tagged date : UTC 2021-02-21 08:43:49





    ซับไทยแปลดี
    1 ซับไทยแปลดี
    http://cornfile.com/zgwjgf4qkrrc
    http://www.filecondo.com/dl.php?f=D91fcd1L3Gmg
    2 ซับไทยแปลดี
    http://cornfile.com/9ow8bzzzs2re
    http://www.filecondo.com/dl.php?f=G320781L3Grv
    3 ซับไทยแปลดี
    http://cornfile.com/8q29dawqapl5
    http://www.filecondo.com/dl.php?f=l728221Lbeh4
    4 ซับไทยแปลดี
    http://cornfile.com/fadcjtkuwiei
    http://www.filecondo.com/dl.php?f=u2128c1LcFXM
    5 Google Translate
    http://cornfile.com/vwb6ca6jkch8
    http://www.filecondo.com/dl.php?f=1581b31L80li
    6 ซับไทยแปลดี
    http://cornfile.com/33ffcx8qbskm
    http://www.filecondo.com/dl.php?f=G1e42c1LaR1c
    7 ซับไทยแปลดี
    http://cornfile.com/lqokdlqq2ghs
    http://www.filecondo.com/dl.php?f=Z4cd011LdNhC
    8 Google Translate
    http://cornfile.com/v1s1s0ip2d8y
    http://www.filecondo.com/dl.php?f=G92da21LfD0W

    2160p
    1
    http://cornfile.com/ku85rcr447ox
    http://www.filecondo.com/dl.php?f=z4fd2e1L0F2P
    2
    http://cornfile.com/8y1b5ea76j1t
    http://www.filecondo.com/dl.php?f=vd8a881L0F3A
    3 Google Translate
    http://cornfile.com/zxmuw0fx3s5i
    http://www.filecondo.com/dl.php?f=1c71291L3fRc
    5 Google Translate
    http://cornfile.com/v6zxkxx5v7bj
    http://www.filecondo.com/dl.php?f=51d4741L8ks66

  2. The Following 8 Users Say Thank You to Duckload.us For This Useful Post:

    agg001 (01-19-2021), jackjangri (02-03-2021), jangska (01-16-2021), kappa (02-16-2021), markzooms (01-23-2021), NaiWan (03-01-2021), nananass (01-17-2021), Wesker_TOT (01-17-2021)

  3. #2
    Senior Member
    สมัครเมื่อ
    Jul 2013
    โพสต์
    1,802
    Thanks
    0
    Thanked 0 Times in 0 Posts
    ขอบคุณมากเลยครับ

  4. #3
    Senior Member
    สมัครเมื่อ
    Dec 2013
    โพสต์
    2,583
    Thanks
    4,503
    Thanked 0 Times in 0 Posts
    ขอบคุณนะครับ...

  5. #4
    Junior Member
    สมัครเมื่อ
    Sep 2017
    โพสต์
    19
    Thanks
    12
    Thanked 0 Times in 0 Posts
    ได้ดู แล้วเย้ ขอบคุณครับ

  6. #5
    Senior Member รูปส่วนตัว gozilla02
    สมัครเมื่อ
    Jul 2012
    โพสต์
    248
    Thanks
    94
    Thanked 1 Time in 1 Post
    ขอบคุณจ้า หนังสนุกประจำปี 64
    http://rabbitfileloveav.blogspot.com/ โหลดหนัง AV 18+ใหม่ล่าสุด อัพเดตทุกวัน มีทุกแนว 1080P Cornfile 10000 เรื่อง

  7. #6
    Administrators รูปส่วนตัว Duckload.us
    สมัครเมื่อ
    Dec 2010
    โพสต์
    123,926
    Thanks
    7
    Thanked 128,943 Times in 57,328 Posts
    Season 1 Episode 1-5

  8. #7
    Administrators รูปส่วนตัว Duckload.us
    สมัครเมื่อ
    Dec 2010
    โพสต์
    123,926
    Thanks
    7
    Thanked 128,943 Times in 57,328 Posts
    WandaVision (2021) Season 1 Episode 1-7

  9. #8
    Junior Member
    สมัครเมื่อ
    Feb 2021
    โพสต์
    1
    Thanks
    0
    Thanked 0 Times in 0 Posts
    ขอบคุณมากค้าบ
    รอตอน 5 แบบแปลดีอยู่นะค้าบ

+ ตอบกลับกระทู้

ข้อมูลกระทู้

Users Browsing this Thread

ในขณะนี้มี 1 ท่านดูกระทู้อยู่. (0 สมาชิกและ 1 ผู้เยี่ยมชม)

     

กฎการโพสต์ข้อความ

  • ท่าน ไม่สามารถ ตั้งกระทู้ใหม่ได้
  • ท่าน ไม่สามารถ ตอบกระทู้ได้
  • ท่าน ไม่สามารถ แนบไฟล์ได้
  • ท่าน ไม่สามารถ แก้ไขข้อความโพสต์ได้
  • BB code สถานะ เปิด
  • Smilies สถานะ เปิด
  • [IMG] สถานะ เปิด
  • HTML สถานะ ปิด