+ ตอบกลับกระทู้
สรุปผลการค้นหา 1 ถึง 2 จากทั้งหมด 2
  1. #1
    Administrators รูปส่วนตัว Duckload.us
    สมัครเมื่อ
    Dec 2010
    โพสต์
    149,953
    Thanks
    7
    Thanked 156,981 Times in 68,585 Posts

    Lightbulb [ฝรั่ง]-•[Netflix]• Marvels.Daredevil Complete Season 2 [2016] [เสียงอังกฤษ 5.1]-[บรรยายไทย + อังกฤษ]-[ซับไทย MASTER From Netflix]-[Soundtrack บรรยายไทย]-WEB-DL.H.265.1080p.



    เรื่องราวของทนายความหนุ่มที่มีความสามารถเหนือมนุษย ์ เป็น Super Hero ที่คอยพดุงความยุติธรรมให้กับสังคม ต่อสู้กับเหล่าอาชญากรเพื่อความสงบสุขของสังคม

    Code:
    Format                      : Matroska
    Format version              : Version 4 / Version 2
    File size                   : 2.04 GiB
    Duration                    : 48 min 59 s
    Overall bit rate            : 5 963 kb/s
    
    Video
    ID                          : 1
    Format                      : HEVC
    Format/Info                 : High Efficiency Video Coding
    Format profile              : Main 10@L4@Main
    Codec ID                    : V_MPEGH/ISO/HEVC
    Duration                    : 48 min 5 s
    Bit rate                    : 5 676 kb/s
    Width                       : 1 920 pixels
    Height                      : 1 080 pixels
    Display aspect ratio        : 16:9
    Frame rate mode             : Constant
    Frame rate                  : 23.976 (24000/1001) FPS
    Color space                 : YUV
    Chroma subsampling          : 4:2:0 (Type 2)
    Bit depth                   : 10 bits
    Bits/(Pixel*Frame)          : 0.114
    Stream size                 : 1.91 GiB (93%)
    Default                     : Yes
    Forced                      : No
    Color range                 : Limited
    Color primaries             : BT.2020
    Transfer characteristics    : SMPTE ST 2084
    Matrix coefficients         : BT.2020 non-constant
    Mastering display color pri : R: x=0.680000 y=0.320000, G: x=0.265000 y=0.690000, B: x=0.150000 y=0.060000, White point: x=0.312700 y=0.329000
    Mastering display luminance : min: 0.0050 cd/m2, max: 4000.0000 cd/m2
    Maximum Content Light Level : 10000 cd/m2
    Maximum Frame-Average Light : 740 cd/m2
    
    Audio
    ID                          : 2
    Format                      : AC-3
    Format/Info                 : Audio Coding 3
    Format settings, Endianness : Big
    Codec ID                    : A_AC3
    Duration                    : 48 min 59 s
    Bit rate mode               : Constant
    Bit rate                    : 384 kb/s
    Channel(s)                  : 6 channels
    Channel positions           : Front: L C R, Side: L R, LFE
    Sampling rate               : 48.0 kHz
    Frame rate                  : 31.250 FPS (1536 spf)
    Bit depth                   : 16 bits
    Compression mode            : Lossy
    Stream size                 : 135 MiB (6%)
    Title                       : English
    Language                    : English
    Service kind                : Complete Main
    Default                     : Yes
    Forced                      : No
    
    Text 1
    ID                          : 3
    Format                      : UTF-8
    Codec ID                    : S_TEXT/UTF8
    Codec ID/Info               : UTF-8 Plain Text
    Duration                    : 46 min 44 s
    Bit rate                    : 75 b/s
    Count of elements           : 744
    Stream size                 : 25.7 KiB (0%)
    Title                       : English [SDH]
    Language                    : English
    Default                     : No
    Forced                      : No
    
    
    Text 40
    ID                          : 42
    Format                      : UTF-8
    Codec ID                    : S_TEXT/UTF8
    Codec ID/Info               : UTF-8 Plain Text
    Duration                    : 47 min 40 s
    Bit rate                    : 139 b/s
    Count of elements           : 607
    Stream size                 : 48.7 KiB (0%)
    Title                       : Thai [Full]
    Language                    : Thai
    Default                     : No
    Forced                      : No
    01
    01
    http://www.filecondo.com/dl.php?f=38376f1L9ukx
    02
    http://www.filecondo.com/dl.php?f=V9520a1L9ulA
    03
    http://www.filecondo.com/dl.php?f=84b0121L9umx
    04
    http://www.filecondo.com/dl.php?f=q050d01L9uny
    05
    http://www.filecondo.com/dl.php?f=R4a8c51L9uot
    06
    http://www.filecondo.com/dl.php?f=Y54f7d1L9upP
    07
    http://www.filecondo.com/dl.php?f=z6f3441L9uqa
    08
    http://www.filecondo.com/dl.php?f=u9304c1L9urc
    09
    http://www.filecondo.com/dl.php?f=Y8b5e71L9usa
    10
    http://www.filecondo.com/dl.php?f=Dd3ead1L9ut5
    11
    http://www.filecondo.com/dl.php?f=Ccc04d1L9uu7
    12
    http://www.filecondo.com/dl.php?f=u8a2201L9uv2
    13
    http://www.filecondo.com/dl.php?f=Q909271L9uw9

  2. The Following User Says Thank You to Duckload.us For This Useful Post:

    thatsna4555555 (02-04-2022)

  3. #2
    Junior Member
    สมัครเมื่อ
    Nov 2021
    โพสต์
    28
    Thanks
    0
    Thanked 0 Times in 0 Posts
    ขอซีซั่น3ด้วยครับ

+ ตอบกลับกระทู้

ข้อมูลกระทู้

Users Browsing this Thread

ในขณะนี้มี 1 ท่านดูกระทู้อยู่. (0 สมาชิกและ 1 ผู้เยี่ยมชม)

     

กฎการโพสต์ข้อความ

  • ท่าน ไม่สามารถ ตั้งกระทู้ใหม่ได้
  • ท่าน ไม่สามารถ ตอบกระทู้ได้
  • ท่าน ไม่สามารถ แนบไฟล์ได้
  • ท่าน ไม่สามารถ แก้ไขข้อความโพสต์ได้
  • BB code สถานะ เปิด
  • Smilies สถานะ เปิด
  • [IMG] สถานะ เปิด
  • HTML สถานะ ปิด