+ ตอบกลับกระทู้
สรุปผลการค้นหา 1 ถึง 2 จากทั้งหมด 2
  1. #1
    Administrators รูปส่วนตัว Duckload.us
    สมัครเมื่อ
    Dec 2010
    โพสต์
    150,746
    Thanks
    7
    Thanked 157,942 Times in 68,961 Posts

    Lightbulb [ฝรั่ง]-•[Netflix]• Marvels.Daredevil Complete Season 1 [2015] [เสียงอังกฤษ 5.1]-[บรรยายไทย + อังกฤษ]-[ซับไทย MASTER From Netflix]-[Soundtrack บรรยายไทย]-WEB-DL.H.265.1080p




    เรื่องราวของทนายความหนุ่มที่มีความสามารถเหนือมนุษย ์ เป็น Super Hero ที่คอยพดุงความยุติธรรมให้กับสังคม ต่อสู้กับเหล่าอาชญากรเพื่อความสงบสุขของสังคม

    Code:
    Format                      : Matroska
    Format version              : Version 4 / Version 2
    File size                   : 2.25 GiB
    Duration                    : 53 min 45 s
    Overall bit rate            : 5 991 kb/s
    
    
    Video
    ID                          : 1
    Format                      : HEVC
    Format/Info                 : High Efficiency Video Coding
    Format profile              : Main 10@L4@Main
    Codec ID                    : V_MPEGH/ISO/HEVC
    Duration                    : 52 min 51 s
    Bit rate                    : 5 696 kb/s
    Width                       : 1 920 pixels
    Height                      : 1 080 pixels
    Display aspect ratio        : 16:9
    Frame rate mode             : Constant
    Frame rate                  : 23.976 (24000/1001) FPS
    Color space                 : YUV
    Chroma subsampling          : 4:2:0 (Type 2)
    Bit depth                   : 10 bits
    Bits/(Pixel*Frame)          : 0.115
    Stream size                 : 2.10 GiB (93%)
    Default                     : Yes
    Forced                      : No
    Color range                 : Limited
    Color primaries             : BT.2020
    Transfer characteristics    : SMPTE ST 2084
    Matrix coefficients         : BT.2020 non-constant
    Mastering display color pri : R: x=0.680000 y=0.320000, G: x=0.265000 y=0.690000, B: x=0.150000 y=0.060000, White point: x=0.312700 y=0.329000
    Mastering display luminance : min: 0.0050 cd/m2, max: 4000.0000 cd/m2
    Maximum Content Light Level : 10000 cd/m2
    Maximum Frame-Average Light : 1468 cd/m2
    
    Audio
    ID                          : 2
    Format                      : AC-3
    Format/Info                 : Audio Coding 3
    Format settings, Endianness : Big
    Codec ID                    : A_AC3
    Duration                    : 53 min 45 s
    Bit rate mode               : Constant
    Bit rate                    : 384 kb/s
    Channel(s)                  : 6 channels
    Channel positions           : Front: L C R, Side: L R, LFE
    Sampling rate               : 48.0 kHz
    Frame rate                  : 31.250 FPS (1536 spf)
    Bit depth                   : 16 bits
    Compression mode            : Lossy
    Stream size                 : 148 MiB (6%)
    Title                       : English
    Language                    : English
    Service kind                : Complete Main
    Default                     : Yes
    Forced                      : No
    
    Text 1
    ID                          : 3
    Format                      : UTF-8
    Codec ID                    : S_TEXT/UTF8
    Codec ID/Info               : UTF-8 Plain Text
    Duration                    : 51 min 22 s
    Bit rate                    : 65 b/s
    Count of elements           : 733
    Stream size                 : 24.6 KiB (0%)
    Title                       : English [SDH]
    Language                    : English
    Default                     : No
    Forced                      : No
    
    
    Text 40
    ID                          : 42
    Format                      : UTF-8
    Codec ID                    : S_TEXT/UTF8
    Codec ID/Info               : UTF-8 Plain Text
    Duration                    : 51 min 2 s
    Bit rate                    : 142 b/s
    Count of elements           : 640
    Stream size                 : 53.4 KiB (0%)
    Title                       : Thai [Full]
    Language                    : Thai
    Default                     : No
    Forced                      : No
    01 http://www.filecondo.com/dl.php?f=z4abda1L9u79
    02 http://www.filecondo.com/dl.php?f=C14c861L9u86
    03 http://www.filecondo.com/dl.php?f=Lce3581L9u9q
    04 http://www.filecondo.com/dl.php?f=Z19e301L9uag
    05 http://www.filecondo.com/dl.php?f=59ad651L9ub7
    06 http://www.filecondo.com/dl.php?f=H261ae1L9uc5
    07 http://www.filecondo.com/dl.php?f=N1f1901L9ud0
    08 http://www.filecondo.com/dl.php?f=ub280d1L9ue1
    09 http://www.filecondo.com/dl.php?f=613a991L9ueK
    10 http://www.filecondo.com/dl.php?f=qf81981L9ugj
    11 http://www.filecondo.com/dl.php?f=Qb4dfa1L9uhQ
    12 http://www.filecondo.com/dl.php?f=Sf76091L9uiP
    13 http://www.filecondo.com/dl.php?f=s586cf1L9ujz

  2. The Following User Says Thank You to Duckload.us For This Useful Post:

    thatsna4555555 (02-04-2022)

  3. #2
    Junior Member
    สมัครเมื่อ
    Nov 2021
    โพสต์
    28
    Thanks
    0
    Thanked 0 Times in 0 Posts
    ขอซีซั่น3ด้วยครับ

+ ตอบกลับกระทู้

ข้อมูลกระทู้

Users Browsing this Thread

ในขณะนี้มี 1 ท่านดูกระทู้อยู่. (0 สมาชิกและ 1 ผู้เยี่ยมชม)

     

กฎการโพสต์ข้อความ

  • ท่าน ไม่สามารถ ตั้งกระทู้ใหม่ได้
  • ท่าน ไม่สามารถ ตอบกระทู้ได้
  • ท่าน ไม่สามารถ แนบไฟล์ได้
  • ท่าน ไม่สามารถ แก้ไขข้อความโพสต์ได้
  • BB code สถานะ เปิด
  • Smilies สถานะ เปิด
  • [IMG] สถานะ เปิด
  • HTML สถานะ ปิด