เรื่องย่อ
เรื่องราวทั้งหมดเกิดขึ้นเมื่อเด็กน้อย Bryce Loski ย้ายบ้านใหม่เข้ามาในเมืองแห่งหนึ่ง วันนั้นเขาก็พบกับเด็กสาวรุ่นราวคราวเดียวกันอย่าง Juli Baker สาวน้อยบ้านตรงข้ามที่เข้ามาทักทายเขาทันทีตั้งแต่แร กพบ และ นับแต่วันนั้น Juli ก็อยู่ในชีวิตประจำวันของ Bryce ตลอดมา โดยเขาคิดเสมอว่าไม่มีวันที่เขาจะยอมใจอ่อนไปชอบยัยเ ด็กผู้หญิงคนนี้แน่ๆ จนเวลาผ่านไปหลายปีเมื่อทั้งคู่ก้าวเข้าสู่วัยรุ่น ซึ่งตอนนี้ Juli ก็ยังตามติด Bryce อยู่ไม่เปลี่ยน แถมเขายังคิดแผนควงสาวอื่นเป็นแฟนเผื่อให้ Juli เลิกตามตื้อเขาสักที
Flipped คือหนังรักใสๆของวัยแรกรุ่นที่นำเสนอได้อย่างมีชั้นเ ชิง มีบทภาพยนตร์ที่ลื่นไหลและธรรมชาติ รวมไปถึงได้นักแสดงที่เข้าถึงตัวละครได้อย่างดีเยี่ย ม โดยเฉพาะการที่หนังนำเสนอความคิดเห็นของตัวละครเอกทั ้งสองสลับกันไปมาในเหตุการณ์เดียวกันที่ดูลงตัวและน่ าติดตามตลอดเวลาหนึ่งชั่วโมงครึ่งที่ไม่มีช่วงไหนที่ น่าเบื่อเลยและเมื่อวันหนึ่งที่ Juli เลิกยุ่งกับ Bryce เพราะเธอคิดได้ว่า ‘บางทีเขาอาจจะไม่ใช่คนๆนั้นก็ได้’ เหตุการณ์นี้ทำให้ Bryce เปลี่ยนไปโดยที่เจ้าตัวก็ไม่สามารถหาเหตุผลมาอธิบายไ ด้ และเมื่อคนที่อยู่ข้างเขาเสมอมาหายไป ก็ถึงคราวที่เขาต้องหาคำตอบที่ทำให้เขากินไม่ได้ นอนไม่หลับ ครั้งนี้อย่างจริงจังสักที!

Format : Matroska
Format version : Version 4 / Version 2
File size : 3.95 GiB
Duration : 1 h 29 min
Overall bit rate : 6 298 kb/s
Encoded date : UTC 2018-09-23 17:10:33
Writing application : mkvmerge v26.0.0 ( In The Game ) 64-bit
Writing library : libebml v1.3.6 + libmatroska v1.4.9

Video
ID : 1
Format : AVC
Format/Info : Advanced Video Codec
Format profile : [email protected]
Format settings : CABAC / 3 Ref Frames
Format settings, CABAC : Yes
Format settings, ReFrames : 3 frames
Codec ID : V_MPEG4/ISO/AVC
Duration : 1 h 29 min
Bit rate : 4 865 kb/s
Width : 1 920 pixels
Height : 1 080 pixels
Display aspect ratio : 16:9
Frame rate mode : Constant
Frame rate : 23.976 (24000/1001) FPS
Color space : YUV
Chroma subsampling : 4:2:0
Bit depth : 8 bits
Scan type : Progressive
Bits/(Pixel*Frame) : 0.098
Stream size : 3.05 GiB (77%)
Language : English
Default : Yes
Forced : No

Audio #1
ID : 2
Format : DTS
Format/Info : Digital Theater Systems
Codec ID : A_DTS
Duration : 1 h 29 min
Bit rate mode : Constant
Bit rate : 768 kb/s
Channel(s) : 6 channels
Channel positions : Front: L C R, Side: L R, LFE
Sampling rate : 48.0 kHz
Frame rate : 93.750 FPS (512 SPF)
Bit depth : 24 bits
Compression mode : Lossy
Stream size : 493 MiB (12%)
Title : DTS ENG
Language : English
Default : Yes
Forced : No

Audio #2
ID : 3
Format : AC-3
Format/Info : Audio Coding 3
Codec ID : A_AC3
Duration : 1 h 29 min
Bit rate mode : Constant
Bit rate : 640 kb/s
Channel(s) : 6 channels
Channel positions : Front: L C R, Side: L R, LFE
Sampling rate : 48.0 kHz
Frame rate : 31.250 FPS (1536 SPF)
Bit depth : 16 bits
Compression mode : Lossy
Stream size : 411 MiB (10%)
Title : AC-3 THAI
Language : Thai
Service kind : Complete Main
Default : No
Forced : No

Text
ID : 4
Format : PGS
Muxing mode : zlib
Codec ID : S_HDMV/PGS
Codec ID/Info : Picture based subtitle format used on BDs/HD-DVDs
Duration : 1 h 23 min
Bit rate : 40.9 kb/s
Count of elements : 3052
Stream size : 24.4 MiB (1%)
Title : THAI PGS
Language : Thai
Default : Yes
Forced : No

Flipped (2010).mkv - 3.9 GB
Flipped 2010.mkv - 8.2 GB