+ ตอบกลับกระทู้
สรุปผลการค้นหา 1 ถึง 2 จากทั้งหมด 2
  1. #1
    Administrators รูปส่วนตัว Duckload.us
    สมัครเมื่อ
    Dec 2010
    โพสต์
    124,137
    Thanks
    7
    Thanked 129,116 Times in 57,379 Posts

    Thumbs up [ฝรั่ง]-Clouds 2020 หนังใหม่ค่าย Disney ซาบซึ้งกินใจ เรียกน้ำตา ยังไม่มีชื่อไทย ไม่มีกำหนดฉายในไทย ไฟล์เล็กสเปคสูง ภาพเสียงคมชัด พากย์อังกฤษ 5.1-บรรยายไทยแปล-WEB-DL.H.264.1080p. [Modified]-[Soundtrack บรรยายไทย (google)]




    ประเภท : biography, drama, music
    กำกับการแสดง : Justin Baldoni
    ดารานำแสดง : Dylan Everett, Jason Mraz, LilRel Howery, Madison Iseman, Mylè ne Dinh……

    Clouds เป็นมากกว่าภาพยนตร์...... สร้างจากเหตุการณ์ชีวิตจริงของซัค Zach Zobiech ผู้เขียนเพลง Clouds
    หนังถ่ายทอดออกมาได้อย่างดีเยี่ยม เต็มเปี่ยมไปด้วยช่วงเวลาแห่งอารมณ์ความรัก ความสุขและความเศร้า
    อาจจะเป็นแรงบันดาลใจให้ผู้ซึ่งท้อแท้หมดหวัง ต้องการที่จะอยู่สู้ชีวิต อยากเป็นคนที่ดีขึ้นเพราะหนังเรื่องนี้


    พร้อมข้อคิดดี ๆ ว่า “คุณไม่จำเป็นต้องรู้ว่าคุณกำลังจะตายเพื่อการเริ่มต ้น...ที่จะรักครอบครัวและคนรอบข้าง
    ทำชีวิตให้มีค่าในทุกวัน เพราะไม่อาจรู้ว่าเมื่อไหร่คุณจะตาย ไม่รู้ด้วยซ้ำว่าพรุ่งนี้เราจะยังมีชีวิตอยู่หรือไม่ ”

    ซัคหรือแซคได้รับการวินิจฉัยว่าเป็นมะเร็งและต้องผ่า นการให้คีโม ซึ่งเขาน่าจะมีชีวิตอยู่ต่อไปได้ไม่นาน
    เขาอาจมีชีวิตอยู่ได้อีกเพียง 6 เดือน ด้วยเวลาอันจำกัด เขาและผองเพื่อนตัดสินใจร่วมกันทำตามความฝัน
    เขากับเพื่อนนักดนตรีได้ผลิตอัลบั้มเพลง ‘Clouds’ ให้กำลังใจผู้ป่วยมะเร็ง ปัจจุบันเพลงกลับขึ้นอันดับหนึ่งไอทูน


    Format : Matroska
    Format version : Version 4
    File size : 2.49 GiB
    Duration : 2 h 1 min
    Overall bit rate : 2 951 kb/s
    Movie name : Clouds.2020.1080p.BluRay.x264.AAC5.1.P
    Encoded date : UTC 2021-02-20 10:34:30
    Writing application : mkvmerge v52.0.0 ('Secret For The Mad') 64-bit
    Writing library : libebml v1.4.1 + libmatroska v1.6.2

    Video
    ID : 1
    Format : AVC
    Format/Info : Advanced Video Codec
    Format profile : [email protected]
    Format settings : CABAC / 2 Ref Frames
    Format settings, CABAC : Yes
    Format settings, Reference frames : 2 frames
    Codec ID : V_MPEG4/ISO/AVC
    Duration : 2 h 0 min
    Bit rate : 2 607 kb/s
    Width : 1 920 pixels
    Height : 800 pixels
    Display aspect ratio : 2.40:1
    Frame rate mode : Constant
    Frame rate : 23.976 (24000/1001) FPS
    Color space : YUV
    Chroma subsampling : 4:2:0
    Bit depth : 8 bits
    Scan type : Progressive
    Bits/(Pixel*Frame) : 0.071
    Stream size : 2.20 GiB (88%)
    Default : Yes
    Forced : No

    Audio
    ID : 2
    Format : AAC LC
    Format/Info : Advanced Audio Codec Low Complexity
    Codec ID : A_AAC-2
    Duration : 2 h 0 min
    Bit rate : 341 kb/s
    Channel(s) : 6 channels
    Channel layout : C L R Ls Rs LFE
    Sampling rate : 48.0 kHz
    Frame rate : 46.875 FPS (1024 SPF)
    Compression mode : Lossy
    Stream size : 295 MiB (12%)
    Title : English 5.1
    Language : English
    Default : Yes
    Forced : No

    Text #1
    ID : 3
    Format : ASS
    Codec ID : S_TEXT/ASS
    Codec ID/Info : Advanced Sub Station Alpha
    Duration : 1 h 58 min
    Bit rate : 202 b/s
    Count of elements : 1685
    Compression mode : Lossless
    Stream size : 176 KiB (0%)
    Title : Thai
    Language : Thai
    Default : No
    Forced : No

    Text #2
    ID : 4
    Format : ASS
    Codec ID : S_TEXT/ASS
    Codec ID/Info : Advanced Sub Station Alpha
    Duration : 1 h 58 min
    Bit rate : 113 b/s
    Count of elements : 1684
    Compression mode : Lossless
    Stream size : 98.6 KiB (0%)
    Title : English
    Language : English
    Default : No
    Forced : No

    Text #3
    ID : 5
    Format : UTF-8
    Codec ID : S_TEXT/UTF8
    Codec ID/Info : UTF-8 Plain Text
    Duration : 2 h 0 min
    Bit rate : 53 b/s
    Count of elements : 1341
    Stream size : 46.9 KiB (0%)
    Title : Spanish [Full]
    Language : Spanish
    Default : No
    Forced : No

    Text #4
    ID : 6
    Format : UTF-8
    Codec ID : S_TEXT/UTF8
    Codec ID/Info : UTF-8 Plain Text
    Duration : 2 h 0 min
    Bit rate : 52 b/s
    Count of elements : 1430
    Stream size : 46.7 KiB (0%)
    Title : French [Full]
    Language : French
    Default : No
    Forced : No

    Text #5
    ID : 7
    Format : UTF-8
    Codec ID : S_TEXT/UTF8
    Codec ID/Info : UTF-8 Plain Text
    Duration : 1 h 58 min
    Bit rate : 70 b/s
    Count of elements : 1686
    Stream size : 61.1 KiB (0%)
    Title : English CC
    Language : English
    Default : Yes
    Forced : No

    Text #6
    ID : 8
    Format : UTF-8
    Codec ID : S_TEXT/UTF8
    Codec ID/Info : UTF-8 Plain Text
    Duration : 1 h 58 min
    Bit rate : 160 b/s
    Count of elements : 1678
    Stream size : 140 KiB (0%)
    Title : Thai CC
    Language : Thai
    Default : No
    Forced : No








    นักวิจารณ์บางคนถึงกับบอกว่า ลืมการรีเมค Mulan ไปได้เลย นี่อาจเป็นภาพยนตร์ดิสนีย์ที่ดีที่สุดแห่งปี
    ฉันร้องไห้ในช่วง 30 นาทีแรก, ร้องไห้หลายครั้งตลอดทั้งเรื่อง, ร้องไห้หลังจากที่ฉันดูภาพยนตร์จบ
    ฉันไม่เคยร้องไห้มากขนาดนี้ระหว่างดูหนัง ตอนจบเศร้าจัง ซาบซึ้งและสะอื้นไห้อย่างแท้จริง......

    ซับไทยแปลจากภาษาอังกฤษ-CC โดย google ทำเองกับมือ ไม่มีเวลาปรับแก้ต้นฉบับ ภาษาก็จะดูแปลก ๆ เช่นนั้นเอง.

    Download:cornfile
    http://cornfile.com/8q37mzn7snha
    Download:filecondo
    http://www.filecondo.com/dl.php?f=1bf7711Le9b5

  2. #2
    Senior Member
    สมัครเมื่อ
    Jul 2013
    โพสต์
    1,810
    Thanks
    0
    Thanked 0 Times in 0 Posts
    ขอบคุณครับ

+ ตอบกลับกระทู้

ข้อมูลกระทู้

Users Browsing this Thread

ในขณะนี้มี 1 ท่านดูกระทู้อยู่. (0 สมาชิกและ 1 ผู้เยี่ยมชม)

     

กฎการโพสต์ข้อความ

  • ท่าน ไม่สามารถ ตั้งกระทู้ใหม่ได้
  • ท่าน ไม่สามารถ ตอบกระทู้ได้
  • ท่าน ไม่สามารถ แนบไฟล์ได้
  • ท่าน ไม่สามารถ แก้ไขข้อความโพสต์ได้
  • BB code สถานะ เปิด
  • Smilies สถานะ เปิด
  • [IMG] สถานะ เปิด
  • HTML สถานะ ปิด