+ ตอบกลับกระทู้
สรุปผลการค้นหา 1 ถึง 2 จากทั้งหมด 2
  1. #1
    Administrators รูปส่วนตัว Duckload.us
    สมัครเมื่อ
    Dec 2010
    โพสต์
    123,926
    Thanks
    7
    Thanked 128,943 Times in 57,328 Posts

    Lightbulb (เกาหลี.เสียงไทย)Hospital Ship (Byungwonsun 병원선) (2017) เรือพยาบาล 1-40 END[1080p.WEB-DL..H264][ Sound:AAC Thai 2.0:Master][SUB Vob:Eng]



    เพราะความทุรกันดารจึงไม่มีหมอคนไหนอยากมาประจำการบน เรือพยาบาลลำนี้ แต่ฮยอน แจกึน และจุนยองกลับต้องมาประจำการที่นี่ ในขณะที่อึนแจได้กลายเป็นที่รู้จักมากขึ้นจากการช่วย ชีวิตทายาทดูซองกรุ๊ป

    ฮาจีวอน นักแสดงสาวมากความสามารถกลับมาอีกครั้งกับละครแนวแพท ย์ Hospital Ship ในเรื่องนี้เธอรับบทเป็น ซงอึนแจ ศัลยแพทย์ฝีมือดีที่ต้องจบอาชีพแพทย์ เพราะข้อกล่าวหาจากสาธารณชน เธอมาที่โรงพยาบาลบนเรือที่ออกเดินทางเพื่อรักษาผู้ป ่วย และเรียนรู้วิธีการเป็นหมอที่เห็นอกเห็นใจผู้ป่วย คังมินฮยอกรับบทเป็น ควักฮยอง แพทย์ทหารที่ประจำการบนเรือ ตัวละครของเขาเป็นแพทย์ฝึกหัดที่มีความอบอุ่นและความ เมตตา เน้นการดูแลผู้ป่วยด้วยความจริงใจ ตรงข้ามกับตัวละครของฮาจีวอน ที่เน้นแค่การทำงานที่มีประสิทธิภาพ เธอเลือกมาทำงานที่นี่เพื่อกู้สถานะทางสังคมคืน เมื่อนั้นเธอจะสามารถกลับไปยังที่ที่เธอมาได้ “บันทึกการผจญภัยของแพทย์วัยเยาว์เพื่อการเป็นหมอที่ แท้จริง นำไปสู่การใช้ชีวิตจริง และการรักษาคนไข้อย่างจริงใจ”

    Code:
    Format                      : Matroska
    
    Format version              : Version 4
    
    File size                   : 1.16 GiB
    
    Duration                    : 32 min 6 s
    
    Overall bit rate            : 5 186 kb/s
    
    Movie name                  : Hospital.Ship._©GOLD CUP™_WWW.TT-TORRENT.COM
    
    Encoded date                : UTC 2021-02-13 17:54:23
    
    Writing library             : libebml v1.4.1 + libmatroska v1.6.2
    
    Video
    
    ID                          : 1
    
    Format                      : AVC
    
    Format/Info                 : Advanced Video Codec
    
    Format profile              : [email protected]
    
    Format settings             : CABAC / 1 Ref Frames
    
    Format settings, CABAC      : Yes
    
    Format settings, Reference  : 1 frame
    
    Format settings, GOP        : M=1, N=25
    
    Codec ID                    : V_MPEG4/ISO/AVC
    
    Duration                    : 32 min 6 s
    
    Bit rate mode               : Constant
    
    Bit rate                    : 5 000 kb/s
    
    Width                       : 1 920 pixels
    
    Height                      : 1 080 pixels
    
    Display aspect ratio        : 16:9
    
    Frame rate mode             : Constant
    
    Frame rate                  : 29.970 (30000/1001) FPS
    
    Color space                 : YUV
    
    Chroma subsampling          : 4:2:0
    
    Bit depth                   : 8 bits
    
    Scan type                   : Progressive
    
    Bits/(Pixel*Frame)          : 0.080
    
    Stream size                 : 1.12 GiB (96%)
    
    Title                       : Hospital.Ship._©GOLD CUP™
    
    Language                    : Thai
    
    Default                     : Yes
    
    Forced                      : No
    
    Audio
    
    ID                          : 2
    
    Format                      : AAC LC
    
    Format/Info                 : Advanced Audio Codec Low Complexity
    
    Codec ID                    : A_AAC-2
    
    Duration                    : 32 min 5 s
    
    Bit rate                    : 179 kb/s
    
    Channel(s)                  : 2 channels
    
    Channel layout              : L R
    
    Sampling rate               : 44.1 kHz
    
    Frame rate                  : 43.066 FPS (1024 SPF)
    
    Compression mode            : Lossy
    
    Stream size                 : 41.2 MiB (3%)
    
    Title                       : AAC.2.0.Th
    
    Language                    : Thai
    
    Default                     : Yes
    
    Forced                      : No
    
    Text
    
    ID                          : 3
    
    Format                      : VobSub
    
    Muxing mode                 : zlib
    
    Codec ID                    : S_VOBSUB
    
    Codec ID/Info               : Picture based subtitle format used on DVDs
    
    Duration                    : 31 min 54 s
    
    Bit rate                    : 13.5 kb/s
    
    Count of elements           : 430
    
    Stream size                 : 3.09 MiB (0%)
    
    Title                       : Hospital.Ship.E01.En.Vob.Angsana New.120.5.85.Oreang_©GOLD CUP™
    
    Language                    : English
    
    Default                     : Yes
    
    Forced                      : No





    01 http://www.filecondo.com/dl.php?f=f4ee221LeanM
    02 http://www.filecondo.com/dl.php?f=O280371Leap4
    03 http://www.filecondo.com/dl.php?f=Race4c1LeapJ
    04 http://www.filecondo.com/dl.php?f=U36f3b1LeaqA
    05 http://www.filecondo.com/dl.php?f=Y39b271Leary
    06 http://www.filecondo.com/dl.php?f=gc87441Leasx
    07 http://www.filecondo.com/dl.php?f=dcbfbc1Leatv
    08 http://www.filecondo.com/dl.php?f=l765281Leaus
    09 http://www.filecondo.com/dl.php?f=o2f5e71Leavq
    10 http://www.filecondo.com/dl.php?f=ha2cbb1Leawn
    11 http://www.filecondo.com/dl.php?f=a8cdc21Leaxo
    12 http://www.filecondo.com/dl.php?f=Ie7e421Leayk
    13 http://www.filecondo.com/dl.php?f=4853cf1Leazi
    14 http://www.filecondo.com/dl.php?f=de35c71LeaAg
    15 http://www.filecondo.com/dl.php?f=U992a91LeaBd
    16 http://www.filecondo.com/dl.php?f=j820761LeaCc
    17 http://www.filecondo.com/dl.php?f=l3e41b1LeaDa
    18 http://www.filecondo.com/dl.php?f=r510581LeaE8
    19 http://www.filecondo.com/dl.php?f=03a3e61LeaF6
    20 http://www.filecondo.com/dl.php?f=Nb950d1LeaG4
    21 http://www.filecondo.com/dl.php?f=gcf1f71LeaH2
    22 http://www.filecondo.com/dl.php?f=P0df421LeaI2
    23 http://www.filecondo.com/dl.php?f=xec3651LeaIY
    24 http://www.filecondo.com/dl.php?f=6cea011LeaJW
    25 http://www.filecondo.com/dl.php?f=vef64b1LeaKW
    26 http://www.filecondo.com/dl.php?f=4eb6601LeaLT
    27 http://www.filecondo.com/dl.php?f=H0fadc1LeaMR
    28 http://www.filecondo.com/dl.php?f=X08b771LeaNO
    29 http://www.filecondo.com/dl.php?f=Id5d491LeaOP
    30 http://www.filecondo.com/dl.php?f=Ua04671LeaPK
    31 http://www.filecondo.com/dl.php?f=v49be21LeaQI
    32 http://www.filecondo.com/dl.php?f=t8ca0e1LeaRG
    33 http://www.filecondo.com/dl.php?f=o6386d1LeaSF
    34 http://www.filecondo.com/dl.php?f=R1b6d61LeaTC
    35 http://www.filecondo.com/dl.php?f=X3a4bb1LeaUA
    36 http://www.filecondo.com/dl.php?f=q7353c1LeaVx
    37 http://www.filecondo.com/dl.php?f=23e6871LeaWv
    38 http://www.filecondo.com/dl.php?f=e4aba71LeaXu
    39 http://www.filecondo.com/dl.php?f=d2dc091LeaYs
    40 http://www.filecondo.com/dl.php?f=Rfc00d1LeaZq

  2. #2
    Senior Member
    สมัครเมื่อ
    Aug 2012
    โพสต์
    228
    Thanks
    0
    Thanked 0 Times in 0 Posts
    ขอบคุณครับ

+ ตอบกลับกระทู้

ข้อมูลกระทู้

Users Browsing this Thread

ในขณะนี้มี 1 ท่านดูกระทู้อยู่. (0 สมาชิกและ 1 ผู้เยี่ยมชม)

     

กฎการโพสต์ข้อความ

  • ท่าน ไม่สามารถ ตั้งกระทู้ใหม่ได้
  • ท่าน ไม่สามารถ ตอบกระทู้ได้
  • ท่าน ไม่สามารถ แนบไฟล์ได้
  • ท่าน ไม่สามารถ แก้ไขข้อความโพสต์ได้
  • BB code สถานะ เปิด
  • Smilies สถานะ เปิด
  • [IMG] สถานะ เปิด
  • HTML สถานะ ปิด