+ ตอบกลับกระทู้
สรุปผลการค้นหา 1 ถึง 2 จากทั้งหมด 2
  1. #1
    Administrators รูปส่วนตัว Duckload.us
    สมัครเมื่อ
    Dec 2010
    โพสต์
    123,776
    Thanks
    7
    Thanked 128,798 Times in 57,298 Posts

    Thumbs up [จีน]-White Snake (2019) อิทธิฤทธิ์นางพญานาคีขาว-Blu-ray.DTS.1080p. [rip from Master]-[พากย์จีน-ไทย(โรงใสๆ) บรรยายไทย-อังกฤษ]




    เสี่ยวไป๋ หญิงสาวแสนสวยที่เป็นหนึ่งในเผ่าพันธ์งูปีศาจที่บำเพ ็ญเพียรมาอย่างยาวนาน จนสามารถจำแลงกายเป็นมนุษย์ได้ เธอได้รับมอบหมายให้มาทำภารกิจสังหาร แต่ดันเกิดความผิดพลาด จนทำให้เธอสูญเสียความทรงจำและตื่นขึ้นมาในหมู่บ้านน ักจับงู ก่อนได้พบกับ อาซวน ชายหนุ่มแสนดีที่ปกป้องดูแลเธอ จนเกิดเป็นตำนานความรักอมตะที่เหนือกว่าอิทธิฤทธิ์ปา ฏิหาริย์ใด ๆ

    Format : Matroska
    Format version : Version 4
    File size : 4.13 GiB
    Duration : 1 h 39 min
    Overall bit rate : 5 960 kb/s
    Encoded date : UTC 2021-02-22 14:22:13
    Writing application : mkvmerge v53.0.0 ('Fool's Gold') 64-bit
    Writing library : libebml v1.4.1 + libmatroska v1.6.2

    Video
    ID : 1
    Format : AVC
    Format/Info : Advanced Video Codec
    Format profile : [email protected]
    Format settings : CABAC / 3 Ref Frames
    Format settings, CABAC : Yes
    Format settings, Reference : 3 frames
    Codec ID : V_MPEG4/ISO/AVC
    Duration : 1 h 39 min
    Bit rate : 4 290 kb/s
    Width : 1 920 pixels
    Height : 804 pixels
    Display aspect ratio : 2.40:1
    Frame rate mode : Constant
    Frame rate : 24.000 FPS
    Color space : YUV
    Chroma subsampling : 4:2:0
    Bit depth : 8 bits
    Scan type : Progressive
    Bits/(Pixel*Frame) : 0.116
    Stream size : 2.97 GiB (72%)
    Language : Chinese
    Default : Yes
    Forced : No

    Audio #1
    ID : 2
    Format : DTS
    Format/Info : Digital Theater Systems
    Codec ID : A_DTS
    Duration : 1 h 39 min
    Bit rate mode : Constant
    Bit rate : 1 509 kb/s
    Channel(s) : 6 channels
    Channel layout : C L R Ls Rs LFE
    Sampling rate : 48.0 kHz
    Frame rate : 93.750 FPS (512 SPF)
    Bit depth : 24 bits
    Compression mode : Lossy
    Delay relative to video : 11 ms
    Stream size : 1.05 GiB (25%)
    Title : DTS English
    Language : Chinese
    Default : Yes
    Forced : No

    Audio #2
    ID : 3
    Format : AC-3
    Format/Info : Audio Coding 3
    Commercial name : Dolby Digital
    Codec ID : A_AC3
    Duration : 1 h 39 min
    Bit rate mode : Constant
    Bit rate : 128 kb/s
    Channel(s) : 2 channels
    Channel layout : L R
    Sampling rate : 48.0 kHz
    Frame rate : 31.250 FPS (1536 SPF)
    Compression mode : Lossy
    Stream size : 90.8 MiB (2%)
    Title : AC-3 Thai Rong
    Language : Thai
    Service kind : Complete Main
    Default : No
    Forced : No

    Text #1
    ID : 4
    Format : VobSub
    Muxing mode : zlib
    Codec ID : S_VOBSUB
    Codec ID/Info : Picture based subtitle format used on DVDs
    Duration : 1 h 35 min
    Bit rate : 8 874 b/s
    Count of elements : 959
    Stream size : 6.04 MiB (0%)
    Title : Sub Thai 1080p
    Language : Thai
    Default : No
    Forced : No

    Text #2
    ID : 5
    Format : UTF-8
    Codec ID : S_TEXT/UTF8
    Codec ID/Info : UTF-8 Plain Text
    Duration : 1 h 35 min
    Bit rate : 94 b/s
    Count of elements : 959
    Stream size : 65.9 KiB (0%)
    Title : Sub Thai SRT
    Language : Thai
    Default : No
    Forced : No

    Text #3
    ID : 6
    Format : PGS
    Muxing mode : zlib
    Codec ID : S_HDMV/PGS
    Codec ID/Info : Picture based subtitle format used on BDs/HD-DVDs
    Duration : 1 h 35 min
    Bit rate : 26.5 kb/s
    Count of elements : 1918
    Stream size : 18.0 MiB (0%)
    Title : Sub Thai PGS
    Language : Thai
    Default : Yes
    Forced : No

    Text #4
    ID : 7
    Format : VobSub
    Muxing mode : zlib
    Codec ID : S_VOBSUB
    Codec ID/Info : Picture based subtitle format used on DVDs
    Duration : 1 h 35 min
    Bit rate : 7 768 b/s
    Count of elements : 939
    Stream size : 5.29 MiB (0%)
    Title : Sub English 1080p
    Language : English
    Default : No
    Forced : No

    Text #5
    ID : 8
    Format : UTF-8
    Codec ID : S_TEXT/UTF8
    Codec ID/Info : UTF-8 Plain Text
    Duration : 1 h 35 min
    Bit rate : 35 b/s
    Count of elements : 939
    Stream size : 24.9 KiB (0%)
    Title : Sub English SRT
    Language : English
    Default : No
    Forced : No

    Text #6
    ID : 9
    Format : PGS
    Muxing mode : zlib
    Codec ID : S_HDMV/PGS
    Codec ID/Info : Picture based subtitle format used on BDs/HD-DVDs
    Duration : 1 h 35 min
    Bit rate : 21.9 kb/s
    Count of elements : 1878
    Stream size : 14.9 MiB (0%)
    Title : Sub English PGS
    Language : English
    Default : No
    Forced : No





    เสียงพากย์ไทยโรงชัด โมไฟล์จาก Blu-ray ต่างประเทศ

    Download:cornfile
    http://cornfile.com/q3e4hs8hmv4s
    Download:filecondo
    http://www.filecondo.com/dl.php?f=Ffb9471LetZY

  2. The Following 2 Users Say Thank You to Duckload.us For This Useful Post:

    jackjangri (02-24-2021), Wesker_TOT (02-24-2021)

  3. #2
    Senior Member
    สมัครเมื่อ
    Dec 2013
    โพสต์
    2,580
    Thanks
    4,501
    Thanked 0 Times in 0 Posts
    ขอบคุณครับ...

+ ตอบกลับกระทู้

ข้อมูลกระทู้

Users Browsing this Thread

ในขณะนี้มี 1 ท่านดูกระทู้อยู่. (0 สมาชิกและ 1 ผู้เยี่ยมชม)

     

กฎการโพสต์ข้อความ

  • ท่าน ไม่สามารถ ตั้งกระทู้ใหม่ได้
  • ท่าน ไม่สามารถ ตอบกระทู้ได้
  • ท่าน ไม่สามารถ แนบไฟล์ได้
  • ท่าน ไม่สามารถ แก้ไขข้อความโพสต์ได้
  • BB code สถานะ เปิด
  • Smilies สถานะ เปิด
  • [IMG] สถานะ เปิด
  • HTML สถานะ ปิด