Profile
Movie: Cold Fish
Romaji: Tsumetai Nettaigyo
Japanese: 冷 た い 熱 帯 魚
Director: Sion Sono
Writer: Sion Sono, Yoshiki Takahashi
Producer: Yoshinori Chiba, Shinya Himeda, Toshiki Kimura, Akifumi Sugihara
Cinematographer: Shinya Kimura
World Premiere: September 7, 2010 (Venice Film Festival)
Release Date: January 29, 2011
Runtime: 144min.
Genre: Drama / Suspense-Thriller / Crime
Production Company: Nikkatsu
Distributor: Nikkatsu
Language: Japanese
Country: Japan

นำแสดงโดย
Mitsuru Fukikoshi
Denden
Megumi Kagurazaka

เรื่องย่อ
โนบุยูกิ ซายาโมโตะ (Mitsuru Fukikoshi) ชายเจ้าของร้านขายปลาสวยงาม เขาอยู่กับ มิตซึโกะ (Hikari Kajiwara) ลูกสาวที่กำลังเป็นวัยรุ่นและทาเอโกะ (Megumi Kagurazaka) ภรรยาใหม่ ซึ่งความสัมพันธ์ของทั้งสามคนมันไม่ราบลื่นเอาเสียเล ย เมื่อลูกสาวไม่ชอบหน้าเมียใหม่ของเขา และมักทำตัวมีปัญหานอกบ้านให้คนเป็นพ่อกลุ้มใจเสมอ จนวันหนึ่ง มิตซึโกะ ก็ก่อเรื่องขึ้นมาอีกจนได้ เมื่อเธอแอบเข้าไปขโมยของในมินิมาร์ทแล้วถูกจับได้ คนเป็นพ่อเลยต้องรีบวิ่งแจ้นมาแก้ปัญหาให้อีกครั้ง

และครั้งนี้ถือเป็นเรื่องโชคดีที่ ซายาโมโตะ ได้เจอกับเพื่อนใหม่อย่าง ยูกิโอะ มุราตะ (Denden) ที่ให้ความช่วยเหลือพูดกับเจ้าของร้านให้จนไม่เอาเรื ่อง ในคืนนั้น มุราตะ ได้เชิญชวนแกมบังคับให้ ซายาโมโตะ และครอบครัวเดินทางไปเยี่ยมชมบ้านของเขา ซึ่งเปิดเป็นร้านขายปลาสวยงามเช่นเดียวกัน ด้วยความเกรงใจเพื่อนใหม่ที่เพิ่งให้ความช่วยเหลือกั นมา ครอบครัว ซายาโมโตะ เลยต้องรับปากตามคำเชิญ

หลังจากเหตุการณ์วันนั้นทั้งสองร้านก็ไปมาหาสู่กัน เพราะ มุราตะ รับ มิตซึโกะ เข้าทำงานเป็นพนักงานร้านของเขา ซึ่ง ซายาโมโตะ ไม่เอะใจเลยว่าทำไม มุราตะ จึงพยายามเข้ามาทำดีกับเขาและให้ความช่วยเหลือขนาดนี ้ กว่าที่ ซายาโมโตะ จะรู้ตัวว่าเขาต้องตกเป็นเครื่องมือของฆาตกรต่อเนื่อ งอย่าง มุราตะ มันก็สายเกินไปซะแล้ว

General
Format : Matroska
Format version : Version 2
File size : 2.86 GiB
Duration : 2 h 26 min
Overall bit rate : 2 803 kb/s
Encoded date : UTC 2015-07-22 14:43:55
Writing application : mkvmerge v6.1.0 ('Old Devil') built on Mar 4 2013 09:10:42
Writing library : libebml v1.3.0 + libmatroska v1.4.0

Video
ID : 1
Format : AVC
Format/Info : Advanced Video Codec
Format profile : [email protected]
Format settings : CABAC / 4 Ref Frames
Format settings, CABAC : Yes
Format settings, RefFrames : 4 frames
Codec ID : V_MPEG4/ISO/AVC
Duration : 2 h 26 min
Bit rate : 2 491 kb/s
Width : 1 280 pixels
Height : 688 pixels
Display aspect ratio : 1.85:1
Frame rate mode : Constant
Frame rate : 23.976 FPS
Color space : YUV
Chroma subsampling : 4:2:0
Bit depth : 8 bits
Scan type : Progressive
Bits/(Pixel*Frame) : 0.118
Stream size : 2.54 GiB (89%)
Writing library : x264 core 130 r2273 b3065e6
Encoding settings : cabac=1 / ref=3 / deblock=1:-1:-1 / analyse=0x3:0x133 / me=umh / subme=7 / psy=1 / psy_rd=1.00:0.15 / mixed_ref=1 / me_range=16 / chroma_me=1 / trellis=2 / 8x8dct=1 / cqm=0 / deadzone=21,11 / fast_pskip=0 / chroma_qp_offset=-3 / threads=6 / lookahead_threads=1 / sliced_threads=0 / nr=0 / decimate=1 / interlaced=0 / bluray_compat=0 / constrained_intra=0 / bframes=3 / b_pyramid=2 / b_adapt=2 / b_bias=0 / direct=3 / weightb=1 / open_gop=0 / weightp=2 / keyint=250 / keyint_min=23 / scenecut=40 / intra_refresh=0 / rc_lookahead=50 / rc=crf / mbtree=1 / crf=20.0 / qcomp=0.60 / qpmin=0 / qpmax=69 / qpstep=4 / ip_ratio=1.40 / aq=1:1.00
Default : Yes
Forced : No

Audio
ID : 2
Format : AC-3
Format/Info : Audio Coding 3
Commercial name : Dolby Digital
Codec ID : A_AC3
Duration : 2 h 26 min
Bit rate mode : Constant
Bit rate : 256 kb/s
Channel(s) : 2 channels
Channel layout : L R
Sampling rate : 48.0 kHz
Frame rate : 31.250 FPS (1536 SPF)
Bit depth : 16 bits
Compression mode : Lossy
Stream size : 268 MiB (9%)
Service kind : Complete Main
Default : Yes
Forced : No







- เครดิตไฟล์และแปลไทยโดย PondlosoFS


http://cornfile.com/3p4z8syk9v0x